Iron Maiden 2019-08-03 Hartford, CT FLAC/AUD - Guitars101 - Guitar Forums

Go Back   Guitars101 - Guitar Forums > Music Files > Bootlegs > Lossless Audio Bootlegs

Reply
 
LinkBack Thread Tools Display Modes
Old 09-26-2019, 01:22 AM   #1 (permalink)
Absolute
 
mediaaddict's Avatar
 
Join Date: Aug 2011
Location: Stoneham, MA USA
Posts: 26,517
mediaaddict has a spectacular aura aboutmediaaddict has a spectacular aura about
Iron Maiden 2019-08-03 Hartford, CT FLAC/AUD

****Recorded by D.E and Lisa E. and posted by Dagon 333 on www.dimeadozen.org :: EzTorrent v0.7.0r484 ****


Iron Maiden
The Meadows
Hartford, Ct. USA
2019-08-03

Recorded from the lawn Section 400
Recorded Using Teac VR-10 with Internal Mics
Recorded by: D.E. and Lisa E for ThoseSpacesInBetween
Attendees: Heather and Chaz Cole

The Players:
Bruce Dickenson: The Voice
Steve Harris: Bass
Dave Murray: Guitar
Adrian Smith: Guitar
Nicko McBrain: Drums
Jan Gers: Guitar

The Setlist:

01. Intro Stuff
02. Aces High
03. Where Eagles Dare
04. 2 Minutes To Midnight
05. Bruce Banter
06. The Clansman
07. The Trooper
08. Revelation
09. For The Greater Good Of God
10. The Wicker Man
11. Sign Of The Cross
12. Flight Of Icarus
13. Fear Of The Dark
14. Number Of The Beast
15. Iron Maiden
16. Encore Break
17. Evil That Men Do
18. Hallowed Be Thy Name
19. Run To The Hills
20. Thank Yous

Taper Comments:
I've been seeing Iron Maiden since Piece Of Mind Tour... so many great years; at times Bruce runs around like a fool and cannot keep up due to the difficulty of his job as- well; The Voice of Maiden post Killers. This is NOT one of those- Bruce is On; even when he's switching from microphone to 'Flame Thrower'- yes 2 in fact. I have video footage on my youtube channel- it's f&^king Awesome!
By-The-Way: XFinity Center in Mass. is in my top 5 Worst Venues for many, many reasons: Hartford is one of the better- I have seen and recorded shows throughout America/Canada and Europe; meaning I have some basis of info. to make such a bold statement; really Xfinity SUCKS.

ffp created and verified by D.E. on 2019-09-25

01. Intro Stuff.flac:29e12c131f4a03188405fe5be228b1d0
02. Aces High.flac:8da0ba5d59dc5129fd9b007ac093874f
03. Where Eagles Dare.flac:00a1c19fe17020fbaece96347e5aba60
04. 2 Minutes To Midnight.flac:146390676f9766e281b06ea6d1e03e9d
05. Bruce Banter.flac:cab097e1db433620a9809e0cd2171e42
06. The Clansman.flac:efdfeeec8f98368b9b3ababbf8968cd7
07. The Trooper.flac:7be41652afe37f971d43257540514ec1
08. Revelation.flac:e200d7b1cecd9d61c4ca25987e0768af
09. For The Greater Good Of God.flac:f32477d3a3c8d0c1f8b0de3e6d94ed23
10. The Wicker Man.flac:04b4b6496a9568c71b14943eb4aba9d9
11. Sign Of The Cross.flac:e722bb1be5a782a6dcd4249b879068b9
12. Flight Of Icarus.flac:b1b466c56c8b1ec50847eaa70ce48c1e
13. Fear Of The Dark.flac:3f1ba14a6309533df6fee2ed46a8c1a8
14. The Number Of The Beast.flac:f8d54915bb42dea655f4aa052d5fed45
15. Iron Maiden.flac:c4ae60520b5c8e4e0717811a28a6db2f
16. Encore Break.flac:6470a31b03d926a8aaf06e71896be19d
17. Evil That Men Do.flac:e4bc2d12ec2f4aa7d7870d46bd28af40
18. Hallowed Be Thy Name.flac:8ed62f66151556d129ac6cb57259f74b
19. Run To The Hills.flac:ef218d6fc5e303bcccd558f6d035415e
20. Thank Yous.flac:96b88c32d790becbe71d8ff6961a9ded

MD5 created and verified by D.E. on 2019-09-25

e9128b5892c88787d10fd8f2017fdf47 *01. Intro Stuff.flac
449709061dd93e848691cad917fe9190 *02. Aces High.flac
4cdf499d59c467778bd75b2b9d854dc9 *03. Where Eagles Dare.flac
1d875f5dcc4ac9e678d39ea6477d72ff *04. 2 Minutes To Midnight.flac
12c3295e77dad14651866339955c1a9d *05. Bruce Banter.flac
97223959152a3a1e3f49547ab98b915f *06. The Clansman.flac
24ab39c6526c97947dc5cf51985143de *07. The Trooper.flac
8cc09cf4b47dbd42072965270db061ff *08. Revelation.flac
b9bd3a3ed5130db7738ad57f1ca7e5e1 *09. For The Greater Good Of God.flac
789b036d3ab021413e52a6f4f9770539 *10. The Wicker Man.flac
2d0b88fd383d8ca39cfcc614a0767dfe *11. Sign Of The Cross.flac
e240ee7329c8cdddecddb650416eca29 *12. Flight Of Icarus.flac
d8cc3434472ecab2c37cd6083ffc57ad *13. Fear Of The Dark.flac
a1f426e37d9f9e8693eb13bb2abdf5f2 *14. The Number Of The Beast.flac
73b2f9a11d33fabeb0c6d24afcd323a8 *15. Iron Maiden.flac
5828775be00f07b683fb130067ef55e8 *16. Encore Break.flac
9b3b24481760bcea4ebd8206bf7b73b7 *17. Evil That Men Do.flac
5e64b1a4062cf3ce586a89fb5ed1b486 *18. Hallowed Be Thy Name.flac
6b66fed20b1853c2e3f0cd91865db5a3 *19. Run To The Hills.flac
67a9d08f4f0ec22b517bac98f6dbd67b *20. Thank Yous.flac

ST5 created and verified by D.E. on 2019-09-25

29e12c131f4a03188405fe5be228b1d0 [shntool] 01. Intro Stuff.flac
8da0ba5d59dc5129fd9b007ac093874f [shntool] 02. Aces High.flac
00a1c19fe17020fbaece96347e5aba60 [shntool] 03. Where Eagles Dare.flac
146390676f9766e281b06ea6d1e03e9d [shntool] 04. 2 Minutes To Midnight.flac
cab097e1db433620a9809e0cd2171e42 [shntool] 05. Bruce Banter.flac
efdfeeec8f98368b9b3ababbf8968cd7 [shntool] 06. The Clansman.flac
7be41652afe37f971d43257540514ec1 [shntool] 07. The Trooper.flac
e200d7b1cecd9d61c4ca25987e0768af [shntool] 08. Revelation.flac
f32477d3a3c8d0c1f8b0de3e6d94ed23 [shntool] 09. For The Greater Good Of God.flac
04b4b6496a9568c71b14943eb4aba9d9 [shntool] 10. The Wicker Man.flac
e722bb1be5a782a6dcd4249b879068b9 [shntool] 11. Sign Of The Cross.flac
b1b466c56c8b1ec50847eaa70ce48c1e [shntool] 12. Flight Of Icarus.flac
3f1ba14a6309533df6fee2ed46a8c1a8 [shntool] 13. Fear Of The Dark.flac
f8d54915bb42dea655f4aa052d5fed45 [shntool] 14. The Number Of The Beast.flac
c4ae60520b5c8e4e0717811a28a6db2f [shntool] 15. Iron Maiden.flac
6470a31b03d926a8aaf06e71896be19d [shntool] 16. Encore Break.flac
e4bc2d12ec2f4aa7d7870d46bd28af40 [shntool] 17. Evil That Men Do.flac
8ed62f66151556d129ac6cb57259f74b [shntool] 18. Hallowed Be Thy Name.flac
ef218d6fc5e303bcccd558f6d035415e [shntool] 19. Run To The Hills.flac
96b88c32d790becbe71d8ff6961a9ded [shntool] 20. Thank Yous.flac

Shntool created and verified by D.E. on 2019-09-25

length expanded size cdr WAVE problems fmt ratio filename
6:09.56 65223212 B -b- -- ---xx flac 0.4703 01. Intro Stuff.flac
5:28.50 57976192 B -b- -- ---xx flac 0.5267 02. Aces High.flac
6:09.56 65223208 B -b- -- ---xx flac 0.5189 03. Where Eagles Dare.flac
6:15.46 66258500 B -b- -- ---xx flac 0.5361 04. 2 Minutes To Midnight.flac
3:07.61 33129272 B -b- -- ---xx flac 0.4304 05. Bruce Banter.flac
9:29.22 100423016 B -b- -- ---xx flac 0.5144 06. The Clansman.flac
4:06.37 43482156 B -b- -- ---xx flac 0.5356 07. The Trooper.flac
7:55.29 83858400 B -b- -- ---xx flac 0.5150 08. Revelation.flac
9:35.12 101458304 B -b- -- ---xx flac 0.5153 09. For The Greater Good Of God.flac
4:47.44 50729172 B -b- -- ---xx flac 0.5337 10. The Wicker Man.flac
11:03.15 116987628 B -b- -- ---xx flac 0.4944 11. Sign Of The Cross.flac
4:06.37 43482156 B -b- -- ---xx flac 0.5298 12. Flight Of Icarus.flac
7:55.29 83858400 B -b- -- ---xx flac 0.5147 13. Fear Of The Dark.flac
5:11.04 54870328 B -b- -- ---xx flac 0.5232 14. The Number Of The Beast.flac
5:46.20 61082060 B -b- -- ---xx flac 0.5328 15. Iron Maiden.flac
2:26.54 25882252 B -b- -- ---xx flac 0.4367 16. Encore Break.flac
4:35.63 48658596 B -b- -- ---xx flac 0.5202 17. Evil That Men Do.flac
7:37.59 80752536 B -b- -- ---xx flac 0.5285 18. Hallowed Be Thy Name.flac
4:35.63 48658596 B -b- -- ---xx flac 0.5518 19. Run To The Hills.flac
0:46.71 8282352 B -b- -- ---xx flac 0.4707 20. Thank Yous.flac
117:11.03 1240276336 B 0.5141 (20 files)






https://mega.nz/#F!r50EjSqD!RdBOgR71leChXIpjsObRLw
mediaaddict is online now   Reply With Quote
Sponsored Links
Advertisement
 
Old 09-26-2019, 05:41 AM   #2 (permalink)
Starving Artist
 
Join Date: Jun 2016
Posts: 17
chrismode59-62 is on a distinguished road
thank you
chrismode59-62 is offline   Reply With Quote
Old 09-26-2019, 05:49 AM   #3 (permalink)
101 Guru
 
Join Date: Jun 2014
Location: Cary NC USA
Posts: 1,113
alwaysdime is on a distinguished road
thanks
alwaysdime is offline   Reply With Quote
Old 09-26-2019, 10:43 AM   #4 (permalink)
Backup Artist
 
Join Date: Jun 2013
Posts: 171
BUTTERCOOKIE is on a distinguished road
Thank You
BUTTERCOOKIE is offline   Reply With Quote
Old 09-26-2019, 11:21 AM   #5 (permalink)
101 Guru
 
Join Date: Aug 2013
Location: Germany
Posts: 1,876
xenon01 is on a distinguished road
Thank you.
xenon01 is offline   Reply With Quote
Old 09-26-2019, 01:05 PM   #6 (permalink)
101 Guru
 
Join Date: Nov 2011
Posts: 9,434
craigiebaby is on a distinguished road
Cheers
craigiebaby is offline   Reply With Quote
Old 09-26-2019, 01:29 PM   #7 (permalink)
Famous Artist
 
Join Date: May 2017
Location: Sweden
Posts: 315
Aceswe is on a distinguished road
Thanks
Aceswe is offline   Reply With Quote
Reply


Currently Active Users Viewing This Thread: 1 (0 members and 1 guests)
 
Thread Tools
Display Modes

Posting Rules
You may not post new threads
You may not post replies
You may not post attachments
You may not edit your posts

BB code is On
Smilies are On
[IMG] code is On
HTML code is Off
Trackbacks are On
Pingbacks are On
Refbacks are On



All times are GMT -8. The time now is 04:51 PM.


Powered by vBulletin® Version 3.8.8
Copyright ©2000 - 2019, vBulletin Solutions, Inc.
Search Engine Friendly URLs by vBSEO 3.6.1
vBulletin Security provided by vBSecurity v2.2.2 (Pro) - vBulletin Mods & Addons Copyright © 2019 DragonByte Technologies Ltd.