Alice Cooper & Frehley's Comet 1987-11-06 Indianapolis, IN MP3/AUD - Guitars101 - Guitar Forums

Go Back   Guitars101 - Guitar Forums > Music Files > Bootlegs > Lossy Audio Bootlegs

Like Tree1Likes
  • 1 Post By mediaaddict
 
 
LinkBack Thread Tools
Old 01-23-2020, 01:27 PM  
Absolute
 
mediaaddict's Avatar
 
Join Date: Aug 2011
Location: Stoneham, MA USA
Posts: 28,065
mediaaddict has a spectacular aura aboutmediaaddict has a spectacular aura about
Alice Cooper & Frehley's Comet 1987-11-06 Indianapolis, IN MP3/AUD

****DVD posted by dandrew on The Traders' Den ****


Here's a two-fer: Alice Cooper with opening act Frehley's Comet. Screens below, along with an ad for the show. It's interesting that the filmer secured the footage of the two bands from basically the exact same angle but on opposite sides of the stage.

* * * * *

Frehley's Comet & Alice Cooper
Market Square Arena
Indianapolis, Indiana
November 6, 1987

unknown VHS > standalone > DVD

Frehley's Comet Set List (41 min.)

Rip It Out
Stranger in a Strange Land
Something Moved
Cold Gin (KISS)
Love Me Right
Into the Night
New York Groove
Rock Soldiers

Shot from right hand side in tiered seating. My rating for visual and audio is B-.

* * * * *

Alice Cooper Set List (81 min)

Teenage Frankenstein
No More Mr Nice Guy
Billion Dollar Babies/It's My Body/I'm 18
Go To Hell/Prince Of Darkness
Chop Chop Chop/Gail/Roses On White Lace
Only Women Bleed
Devil's Food/Black Widow
Dead Babies
Killer
Schools Out
Freedom
Under My Wheels

Shot from left hand side in tiered seating. My rating for visual and audio is B-. DVD was received in a mail trade. Don't know who shot it but credit to them.

* * * * *

General
Complete name : VIDEO_TS/VTS_01_3.VOB
Format : MPEG-PS
File size : 878 MiB
Duration : 24 min 21 s
Overall bit rate mode : Variable
Overall bit rate : 5 038 kb/s

Video
ID : 224 (0xE0)
Format : MPEG Video
Format version : Version 2
Format profile : [email protected]
Format settings, BVOP : No
Format settings, Matrix : Default
Format settings, GOP : N=12
Format settings, picture structure : Frame
Duration : 24 min 20 s
Bit rate mode : Variable
Bit rate : 4 682 kb/s
Maximum bit rate : 7 690 kb/s
Width : 720 pixels
Height : 480 pixels
Display aspect ratio : 4:3
Frame rate : 29.970 (30000/1001) FPS
Standard : NTSC
Color space : YUV
Chroma subsampling : 4:2:0
Bit depth : 8 bits
Scan type : Interlaced
Scan order : Top Field First
Compression mode : Lossy
Bits/(Pixel*Frame) : 0.452
Time code of first frame : 00:08:32:13
Time code source : Group of pictures header
GOP, Open/Closed : Closed
Stream size : 815 MiB (93%)

Audio
ID : 189 (0xBD)-128 (0x80)
Format : AC-3
Format/Info : Audio Coding 3
Commercial name : Dolby Digital
Muxing mode : DVD-Video
Duration : 24 min 21 s
Bit rate mode : Constant
Bit rate : 256 kb/s
Channel(s) : 2 channels
Channel layout : L R
Sampling rate : 48.0 kHz
Frame rate : 31.250 FPS (1536 SPF)
Compression mode : Lossy
Delay relative to video : -128 ms
Stream size : 44.6 MiB (5%)
Service kind : Complete Main

Text
ID : 189 (0xBD)-32 (0x20)
Format : RLE
Format/Info : Run-length encoding
Muxing mode : DVD-Video
Duration : 24 min 20 s
Delay relative to video : 367 ms



https://mega.nz/#F!Ed8UAQRJ!VuIOVc2_c9fXrsq0WfE3SA
puremetalll likes this.
mediaaddict is offline  
 
Thread Tools

Posting Rules
You may not post new threads
You may not post replies
You may not post attachments
You may not edit your posts

BB code is On
Smilies are On
[IMG] code is On
HTML code is Off
Trackbacks are On
Pingbacks are On
Refbacks are On



All times are GMT -8. The time now is 08:57 AM.


Powered by vBulletin® Version 3.8.8
Copyright ©2000 - 2020, vBulletin Solutions, Inc.
Search Engine Friendly URLs by vBSEO 3.6.1
vBulletin Security provided by vBSecurity v2.2.2 (Pro) - vBulletin Mods & Addons Copyright © 2020 DragonByte Technologies Ltd.