Guitars101 - Guitar Forums banner
1 - 5 of 5 Posts

·
Administrator
Joined
·
63,126 Posts
Discussion Starter · #1 · (Edited)
Bon Jovi - 1989-09-12 - Phoenix, AZ
(2xDVDfull pro-shot)

Video Quality/Production Info:
Video B, Audio B

Audio/Video Specs:

Video
ID : 224 (0xE0)
Format : MPEG Video
Format version : Version 2
Format profile : [email protected]
Format settings, BVOP : Yes
Format settings, Matrix : Custom
Format settings, GOP : M=3, N=15
Duration : 16s 420ms
Bit rate mode : Variable
Bit rate : 512 Mbps
Maximum bit rate : 9 558 Kbps
Width : 704 pixels
Height : 480 pixels
Display aspect ratio : 4:3
Frame rate : 29.970 fps
Standard : NTSC
Color space : YUV
Chroma subsampling : 4:2:0
Bit depth : 8 bits
Scan type : Interlaced
Scan order : Top Field First
Compression mode : Lossy
Bits/(Pixel*Frame) : 50.602
Stream size : 1 003 MiB (98%)

Audio
ID : 189 (0xBD)-128 (0x80)
Format : AC-3
Format/Info : Audio Coding 3
Mode extension : CM (complete main)
Muxing mode : DVD-Video
Duration : 14s 381ms
Bit rate mode : Constant
Bit rate : 256 Kbps
Channel(s) : 2 channels
Channel positions : Front: L R
Sampling rate : 48.0 KHz
Bit depth : 16 bits
Compression mode : Lossy
Delay relative to video : -67ms
Stream size : 449 KiB (0%)

Text
ID : 224 (0xE0)-DVD-2
Format : EIA-608
Muxing mode : DVD-Video
Muxing mode, more info : Muxed in Video #1
Bit rate mode : Constant
Stream size : 0.00 Byte (0%)

Menu

Format:
NTSC

DVD 1
01 - Lay Your Hands On Me
02 - I'd Die For You
03 - Wild In The Streets
04 - You Give Love A Bad Name
05 - Born To Be My Baby
06 - + Interview with Jon 1995 London

DVD 2
01 - Let It Rock
02 - Living In Sin
03 - Blood On Blood
04 - Livin' On A Prayer
05 - Wanted Dead Or Alive
06 - Bad Medicine/Shout


mirror

mirror
 

Attachments

1 - 5 of 5 Posts
Top