Guitars101 - Guitar Forums banner
1 - 5 of 5 Posts

·
Super Moderator
Joined
·
37,684 Posts
Discussion Starter · #1 ·
Aerosmith
1325 Commonwealth Ave
Boston, Massachusetts
11/5/2012

Source: Schoeps 4V'S(din)>Sound Devices 722 (24/48)
FOB/DFC 50' From Stage, 6' High
DSP: Sound Devices 722>Sound Forge 9.0>CD Wave>flac(16)
Recorded By: Manofz
Seeded By: Manofz

Disc I

01 Unveiling Of Plaque To Aerosmith
02 Jonathan Kraft
03 Bob Kraft
04 Walk The Dog
05 Movin' Out
06 Mama Kin
07 Lover Alot
08 Back In The Saddle Again
09 Sweet Emotion
10 Walk This Way
11 Some Of Your Love
12 Train Kept A Rollin'

Flac Fingerprint

aerosmith2012-11-05 d01t01.flac:d5e4756ef97d04f758641cde3c6bd071
aerosmith2012-11-05 d01t02.flac:8648132313cee51aa3dfc0408125d247
aerosmith2012-11-05 d01t03.flac:a105c2830dd1281a6fadcc7d3ef25577
aerosmith2012-11-05 d01t04.flac:58db65eddd88af8477fe5f436d1934f7
aerosmith2012-11-05 d01t05.flac:bb7ec3027872309893b473d199586857
aerosmith2012-11-05 d01t06.flac:9092cbcb6067a4b879d1caf4e733f833
aerosmith2012-11-05 d01t07.flac:06cf89a56a7fa3e58648927a4bae5308
aerosmith2012-11-05 d01t08.flac:f9b2354ced7cc73e7a13e24375e17d6d
aerosmith2012-11-05 d01t09.flac:543311e4b3838e8a94a79ea9428298f7
aerosmith2012-11-05 d01t10.flac:97ef6bf7d9c1528535511ce85dd494a6
aerosmith2012-11-05 d01t11.flac:26a51bf39873e85a46ff9b9e2604ceb4
aerosmith2012-11-05 d01t12.flac:933d0ffa74bb4d2ee85ba60583ca7d65

Shntool

length expanded size cdr WAVE problems fmt ratio filename
2:40.53 28348700 B --- -- ---xx flac 0.3633 aerosmith2012-11-05 d01t01.flac
1:58.17 20855228 B --- -- ---xx flac 0.3566 aerosmith2012-11-05 d01t02.flac
3:04.20 32504684 B --- -- ---xx flac 0.3024 aerosmith2012-11-05 d01t03.flac
4:14.53 44930300 B --- -- ---xx flac 0.4573 aerosmith2012-11-05 d01t04.flac
6:00.39 63595772 B --- -- ---xx flac 0.4277 aerosmith2012-11-05 d01t05.flac
5:12.12 55065068 B --- -- ---xx flac 0.5047 aerosmith2012-11-05 d01t06.flac
4:08.39 43838972 B --- -- ---xx flac 0.4979 aerosmith2012-11-05 d01t07.flac
5:48.72 61556588 B --- -- ---xx flac 0.4499 aerosmith2012-11-05 d01t08.flac
5:52.33 62170460 B --- -- ---xx flac 0.4895 aerosmith2012-11-05 d01t09.flac
6:03.28 64099100 B --- -- ---xx flac 0.4717 aerosmith2012-11-05 d01t10.flac
3:27.64 36665372 B --- -- ---xx flac 0.5426 aerosmith2012-11-05 d01t11.flac
4:48.09 50824412 B --- -- ---xx flac 0.4994 aerosmith2012-11-05 d01t12.flac
53:19.64 564454656 B 0.4581 (12 files)




Part 1:
Download Here:
http://www.mediafire.com/?fnrc8ztj6g1x3ij

Part 2:
Download Here:
http://www.mediafire.com/?5ksztz1aofb3kvl
 
1 - 5 of 5 Posts
Top