Guitars101 - Guitar Forums banner
1 - 3 of 3 Posts

·
Registered
Joined
·
2,779 Posts
Discussion Starter · #1 ·
Anthrax - Daytona Beach


MPEG 4, AVC, 16 : 9, 1920 x 1080p, Englisch AAC/2



Anthrax - Daytona Beach

Cover / Picture included in the download!

Content

Tracks:
01 - Among the Living
02 - Got the Time (Joe Jackson cover)
03 - Caught in a Mosh
04 - Madhouse
05 - Fight ’em ’til You Can’t
06 - I Am the Law
07 - Antisocial (Trust cover)
08 - Indians

Media Info´s / Bluray Info´s
GeneralUnique ID : 31377615434625053832020744301521594687 (0x179B1BE1D8D27CDB9E870E7D506EE93F)
Complete name : Anthrax - Daytona Beach 2021.mkv
Format : Matroska
Format version : Version 4
File size : 1.76 GiB
Duration : 47 min 36 s
Overall bit rate : 5 291 kb/s
Movie name : Captured by SBR1Z
Encoded date : UTC 2021-11-24 13:51:06
Writing application : mkvmerge v63.0.0 ('Everything') 64-bit
Writing library : libebml v1.4.2 + libmatroska v1.6.4

Video
ID : 1
Format : AVC
Format/Info : Advanced Video Codec
Format profile : [email protected]
Format settings : CABAC / 1 Ref Frames
Format settings, CABAC : Yes
Format settings, Reference frames : 1 frame
Codec ID : V_MPEG4/ISO/AVC
Duration : 47 min 33 s
Bit rate mode : Constant
Bit rate : 5 100 kb/s
Width : 1 920 pixels
Height : 1 080 pixels
Display aspect ratio : 16:9
Frame rate mode : Variable
Frame rate : 23.976 FPS
Color space : YUV
Chroma subsampling : 4:2:0
Bit depth : 8 bits
Scan type : Progressive
Bits/(Pixel*Frame) : 0.103
Stream size : 1.69 GiB (96%)
Default : Yes
Forced : No

Audio
ID : 2
Format : AAC LC
Format/Info : Advanced Audio Codec Low Complexity
Codec ID : A_AAC-2
Duration : 47 min 36 s
Bit rate : 192 kb/s
Channel(s) : 2 channels
Channel layout : L R
Sampling rate : 48.0 kHz
Frame rate : 46.875 FPS (1024 SPF)
Compression mode : Lossy
Delay relative to video : -2 s 571 ms
Stream size : 66.1 MiB (4%)
Default : Yes
Forced : No



Darsteller: Anthrax
MPEG 4, AVC, 16 : 9, 1920 x 1080p, Englisch AAC/2
Sprache: Englisch

Bildseitenformat: 16 : 9
Datenträger: 1 MKV - File (s)
Studio: pro shot
Erscheinungsjahr: 2021
Produktionsjahr: 2021
Laufzeit: ca. 47 Minuten
Größe ca. 1802,24 Megabyte in 4 Links
Größe der Parts: 500 Megabyte




Existing mirrors are always compatible!!!



Download from # Filefactory.com; Ddownload.com; Rapidgator.net



click me



# Passwort

Dorian


 
1 - 3 of 3 Posts
Top