Guitars101 - Guitar Forums banner
1 - 8 of 8 Posts

·
Super Moderator
Joined
·
32,582 Posts
Discussion Starter · #1 ·
Black Sabbath
1975.10.12
Bristol, England UK
Colston Hall

Audience Recording - Taper Unknown

Lineage: Unknown Low Gen Tape > CDR > FLAC > Remaster with Soundforge 7 > FLAC
Additional Lineage: FLAC > TLH > Tested for SBE's > FLAC Level 8
Tracks re-named by 3hrs, and new FFP/MD5 files created.

Disc 1
101 - Supertzar
102 - Killing Yourself to Live
103 - Hole in the Sky
104 - Snowblind
105 - Symtom of the Universe
106 - War Pigs
107 - When the Saints Go Marching In
108 - Sabbra Cadabra
109 - Jam I
110 - Guitar Solo I
111 - Jam II
112 - Guitar Solo II
113 - Sometimes I'm Happy
114 - Drum Solo

Disc 2
201 - Supernaut
202 - Iron Man
203 - Guitar Solo III
204 - Orchid
205 - Rock'n'Roll Doctor
206 - Guitar Solo IV
207 - Black Sabbath
208 - Spiral Architect
209 - Embryo
210 - Children of the Grave

FLAC fingerprint and MD5 verification files are included.
--------------------------------------------------------------------------------------------------------
LINE-UP :

Tony Iommi - guitar
Ozzy Osbourne - vocals
Geezer Butler - bass
Bill Ward - drums
Jezz Woodroffe - keyboards
--------------------------------------------------------------------------------------------------------

101 - Supertzar.flac: audio data is cut on a sector boundary.
102 - Killing Yourself to Live.flac: audio data is cut on a sector boundary.
103 - Hole in the Sky.flac: audio data is cut on a sector boundary.
104 - Snowblind.flac: audio data is cut on a sector boundary.
105 - Symtom of the Universe.flac: audio data is cut on a sector boundary.
106 - War Pigs.flac: audio data is cut on a sector boundary.
107 - When the Saints Go Marching In.flac: audio data is cut on a sector boundary.
108 - Sabbra Cadabra.flac: audio data is cut on a sector boundary.
109 - Jam I.flac: audio data is cut on a sector boundary.
110 - Guitar Solo I.flac: audio data is cut on a sector boundary.
111 - Jam II.flac: audio data is cut on a sector boundary.
112 - Guitar Solo II.flac: audio data is cut on a sector boundary.
113 - Sometimes I'm Happy.flac: audio data is cut on a sector boundary.
114 - Drum Solo.flac: audio data is cut on a sector boundary.
201 - Supernaut.flac: audio data is cut on a sector boundary.
202 - Iron Man.flac: audio data is cut on a sector boundary.
203 - Guitar Solo III.flac: audio data is cut on a sector boundary.
204 - Orchid.flac: audio data is cut on a sector boundary.
205 - Rock'n'Roll Doctor.flac: audio data is cut on a sector boundary.
206 - Guitar Solo IV.flac: audio data is cut on a sector boundary.
207 - Black Sabbath.flac: audio data is cut on a sector boundary.
208 - Spiral Architect.flac: audio data is cut on a sector boundary.
209 - Embryo.flac: audio data is cut on a sector boundary.
210 - Children of the Grave.flac: audio data is cut on a sector boundary.

There were no sector boundary errors.

101 - Supertzar.flac: tested ok (file is decodable without error).
102 - Killing Yourself to Live.flac: tested ok (file is decodable without error).
103 - Hole in the Sky.flac: tested ok (file is decodable without error).
104 - Snowblind.flac: tested ok (file is decodable without error).
105 - Symtom of the Universe.flac: tested ok (file is decodable without error).
106 - War Pigs.flac: tested ok (file is decodable without error).
107 - When the Saints Go Marching In.flac: tested ok (file is decodable without error).
108 - Sabbra Cadabra.flac: tested ok (file is decodable without error).
109 - Jam I.flac: tested ok (file is decodable without error).
110 - Guitar Solo I.flac: tested ok (file is decodable without error).
111 - Jam II.flac: tested ok (file is decodable without error).
112 - Guitar Solo II.flac: tested ok (file is decodable without error).
113 - Sometimes I'm Happy.flac: tested ok (file is decodable without error).
114 - Drum Solo.flac: tested ok (file is decodable without error).
201 - Supernaut.flac: tested ok (file is decodable without error).
202 - Iron Man.flac: tested ok (file is decodable without error).
203 - Guitar Solo III.flac: tested ok (file is decodable without error).
204 - Orchid.flac: tested ok (file is decodable without error).
205 - Rock'n'Roll Doctor.flac: tested ok (file is decodable without error).
206 - Guitar Solo IV.flac: tested ok (file is decodable without error).
207 - Black Sabbath.flac: tested ok (file is decodable without error).
208 - Spiral Architect.flac: tested ok (file is decodable without error).
209 - Embryo.flac: tested ok (file is decodable without error).
210 - Children of the Grave.flac: tested ok (file is decodable without error).

No errors occured.

length expanded size cdr WAVE problems fmt ratio filename
2:15.05 23825804 B --- -- ---xx flac 0.5764 101 - Supertzar.flac
5:45.27 60921548 B --- -- ---xx flac 0.5761 102 - Killing Yourself to Live.flac
4:46.26 50511596 B --- -- ---xx flac 0.5768 103 - Hole in the Sky.flac
6:17.24 66559292 B --- -- ---xx flac 0.5788 104 - Snowblind.flac
5:43.00 60505244 B --- -- ---xx flac 0.5815 105 - Symtom of the Universe.flac
7:44.62 81995468 B --- -- ---xx flac 0.5848 106 - War Pigs.flac
2:16.72 24159788 B --- -- ---xx flac 0.5934 107 - When the Saints Go Marching In.flac
4:43.02 49925948 B --- -- ---xx flac 0.5930 108 - Sabbra Cadabra.flac
1:23.70 14805884 B --- -- ---xx flac 0.5941 109 - Jam I.flac
0:51.31 9069356 B --- -- ---xx flac 0.5940 110 - Guitar Solo I.flac
4:16.47 45268988 B --- -- ---xx flac 0.5926 111 - Jam II.flac
1:57.60 20779964 B --- -- ---xx flac 0.5919 112 - Guitar Solo II.flac
2:58.60 31540364 B --- -- ---xx flac 0.5946 113 - Sometimes I'm Happy.flac
2:46.68 29442380 B --- -- ---xx flac 0.5937 114 - Drum Solo.flac
1:52.74 19930892 B --- -- ---xx flac 0.5482 201 - Supernaut.flac
5:53.56 62400956 B --- -- ---xx flac 0.5368 202 - Iron Man.flac
1:07.12 11847068 B --- -- ---xx flac 0.5357 203 - Guitar Solo III.flac
3:11.47 33802988 B --- -- ---xx flac 0.5332 204 - Orchid.flac
2:59.57 31709708 B --- -- ---xx flac 0.5337 205 - Rock'n'Roll Doctor.flac
1:40.65 17792924 B --- -- ---xx flac 0.5384 206 - Guitar Solo IV.flac
6:54.55 73159004 B --- -- ---xx flac 0.5379 207 - Black Sabbath.flac
4:51.29 51400652 B --- -- ---xx flac 0.5419 208 - Spiral Architect.flac
0:59.06 10421756 B --- -- ---xx flac 0.5503 209 - Embryo.flac
4:50.41 51252476 B --- -- ---xx flac 0.5456 210 - Children of the Grave.flac
88:09.21 933030048 B 0.5673 (24 files)

No errors occured.

MD5
ab7a4383e436fc0430252feaf723fad0 *101 - Supertzar.flac
cafb4a91376dce61f6cd867ceec55b7e *102 - Killing Yourself to Live.flac
7f545b3d2c1431cb19feadd20fc929f8 *103 - Hole in the Sky.flac
dda716503447bf02a487f3d7e9ac8758 *104 - Snowblind.flac
4be6e02080e2e83b468b939e64471dc9 *105 - Symtom of the Universe.flac
dddce451849563d4eb543366c7545411 *106 - War Pigs.flac
5a41a3e5620ebd9fe410435aa3205132 *107 - When the Saints Go Marching In.flac
377a5991734737bdef8408fd4c6173d4 *108 - Sabbra Cadabra.flac
0a568ea879b58c0c6b2c7c346d3dbda4 *109 - Jam I.flac
c1e63b6d0f00081f525c22baf86b0604 *110 - Guitar Solo I.flac
02e13aec2c41fbc322591cf782460f1c *111 - Jam II.flac
80d10bb8d2c5803099ff78dcf135875d *112 - Guitar Solo II.flac
19dad2cc97405e8565c4d38775157e8d *113 - Sometimes I'm Happy.flac
70e65f07f9262ad788f1a06558b37f16 *114 - Drum Solo.flac
794416541d82e872a49955fa360cf3a7 *201 - Supernaut.flac
4f150b5945e5b4755f533ee78a8f0213 *202 - Iron Man.flac
dabc771bca13cea792bb82d9e3387c29 *203 - Guitar Solo III.flac
1fe49011fb14d91b249478876b9f9697 *204 - Orchid.flac
95e47e6e355368d93f8001a56f81004b *205 - Rock'n'Roll Doctor.flac
658f57418f6df42aa813f46391918b29 *206 - Guitar Solo IV.flac
8c5a91946da9a6ed3a493e3eeac8dbd2 *207 - Black Sabbath.flac
b67ee28d39e2a0e8d91bf1d2ba27e7a2 *208 - Spiral Architect.flac
a739ea7112213b06f833b702335b06bf *209 - Embryo.flac
3255c3f6a53de713931e33e7dc5d42bc *210 - Children of the Grave.flac

No errors occured.

FFP
101 - Supertzar.flac:73f2dfe589cf681546228ca750e04827
102 - Killing Yourself to Live.flac:a4635445c1507d07f4b64e4f5767e373
103 - Hole in the Sky.flac:61c24a540500a735f7d6e018401373f8
104 - Snowblind.flac:15972f5bc840a0314549720fc8b9f12a
105 - Symtom of the Universe.flac:80ebfe1a81f0a8fdf7c786e8d2e71573
106 - War Pigs.flac:56dbbb21f610095a6b5b732b58f4806f
107 - When the Saints Go Marching In.flac:f363eb8768e12e10dc4c0d510a483433
108 - Sabbra Cadabra.flac:877b61fe1e3080ee53a2f38ed9f559e7
109 - Jam I.flac:5c695d35f565601352619e57ecc8d14e
110 - Guitar Solo I.flac:48322995077bf30f1d73fcb44a463b6b
111 - Jam II.flac:394c66ddbf580f93174dd16f43bdf93a
112 - Guitar Solo II.flac:f648edf6679d5374227fd77fcd285d8f
113 - Sometimes I'm Happy.flac:1a27fd755e106595a8119f7beca64488
114 - Drum Solo.flac:6f6d85303d3a3fd87d6d9717d2fd2fe7
201 - Supernaut.flac:c3f4754d2e3070a19474fd603def5451
202 - Iron Man.flac:d931d666bff92a73d565bedb6766290a
203 - Guitar Solo III.flac:dcd7222d530a0924f9df2b63f960d2b8
204 - Orchid.flac:f672370bf12c5de6b0ee40192a2f5b10
205 - Rock'n'Roll Doctor.flac:e66d4c51718167d0d082f70718b759d1
206 - Guitar Solo IV.flac:b2e7761b6d41b87cc9bfb665ae011f25
207 - Black Sabbath.flac:d1b47addf4356bf259c0ce13b4ef603d
208 - Spiral Architect.flac:e822d5916aa6b9f76a226d417767050c
209 - Embryo.flac:84a936bdef45172fbe9168cc3ac8a606
210 - Children of the Grave.flac:ec49e60a63192b40ce53aa56516cd9f3

No errors occured.




https://mega.co.nz/#!AEJBjJKb!sCoIuM5IfdHb149VKbJD68Uw_yOarHOQmK8-3qct080
 
1 - 8 of 8 Posts
Top