Guitars101 - Guitar Forums banner
1 - 1 of 1 Posts

·
Registered
Joined
·
105 Posts
Discussion Starter · #1 ·
DC Talk
1993-06-xx
Alive '93 (PRO-SHOT TV - from Tom Green's Lightmusic TV Show)
Mineral City, OH

Source: WKBS-TV Channel 47, Altoona, PA -> Sony VHS Player -> VHS -> Phillip's DVR3508 -> MGEG-2 -> DVD Styler -> VIDEO_TS

This is taken from Tom Green's Lightmusic Show. Over the years most of the masters were lost until 300 show out of 3000 were rediscovered in 2012 and Cornerstone TV is playing to re-air some of the shows
soons. However, I think this may not be in the batch of tapes found. This is DC Talk at Alive '93.

Song list:
01. That Kinda Girl
02. War Chant Intro
03. Tearing Down The Walls (with Jerry McPherson - guitar solo)
04. Time Is...

Media Info:

General
Complete name :DC TALK\VIDEO_TS\VTS_01_1.VOB
Format : MPEG-PS
File size : 594 MiB
Duration : 9mn 59s
Overall bit rate : 8 324 Kbps

Video
ID : 224 (0xE0)
Format : MPEG Video
Format version : Version 2
Format profile : [email protected]
Format settings, BVOP : No
Format settings, Matrix : Default
Format settings, GOP : M=1, N=18
Duration : 9mn 59s
Bit rate mode : Constant
Bit rate : 8 000 Kbps
Width : 720 pixels
Height : 480 pixels
Display aspect ratio : 4:3
Frame rate : 29.970 fps
Standard : NTSC
Color space : YUV
Chroma subsampling : 4:2:0
Bit depth : 8 bits
Scan type : Progressive
Compression mode : Lossy
Bits/(Pixel*Frame) : 0.772
Stream size : 569 MiB (96%)

Audio
ID : 189 (0xBD)-128 (0x80)
Format : AC-3
Format/Info : Audio Coding 3
Mode extension : CM (complete main)
Muxing mode : DVD-Video
Duration : 9mn 59s
Bit rate mode : Constant
Bit rate : 192 Kbps
Channel(s) : 2 channels
Channel positions : Front: L R
Sampling rate : 48.0 KHz
Bit depth : 16 bits
Compression mode : Lossy
Delay relative to video : -5ms
Stream size : 13.7 MiB (2%)

Menu

Link:

https://mega.co.nz/#!0NYkET7A!qws6wdH7_frzEnq8dORJEtFGzRThmXzlX2p6OyxTbdY

Please feel to reupload the DVD but use you own links and give D-JA create whom will let me post more stuff from his archives that have been circulated or are lost for years. He has hundreds of one of kinds MASTERS from 1963 to Present. That D-Ja for letting me post this and please give thanks.
 
1 - 1 of 1 Posts
Top