Guitars101 - Guitar Forums banner
  • Hello guitar enthusiasts! We are pleased to announce an Ask Me Anything discussion thread with Dutch musician Arjen Lucassen. The AMA will be going live on Tuesday, August 10th, and will run until August 12th, and can be found here. Don't miss out!
1 - 8 of 8 Posts

·
Registered
Joined
·
842 Posts
Discussion Starter · #1 ·




Thanks To Original Uploader For File Produce Blu-ray & DVD
Blu-ray, DVD Authoring & Blu-ray, DVD Cover By Deer 5001

*****/*****

Foreigner
with The 21st Century Symphony Orchestra And Chor
Live 40th Anniversary 2018

Setlist:

01 - Overture
02 - Blue Morning, Blue Day
03 - Cold as Ice
04 - Waiting for a Girl Like You
05 - When It Comes to Love
06 - Say You Will
07 - Double Vision
08 - Hot Blooded
09 - Urgent
10 - Feels Like the First Time
11 - I Wanna Know What Love Is

Total Time: 00:59:19​

DVD Info:
DVD Info
Menu: Yes
Chapters (SongSelect): Yes
SoundMenu: Yes
AudioSetup: Yes
DVD Produce From HD: Yes (Excellence Video & Audio)
Video: NTSC/16:9 Widescreen
Audio1: AC3/448 Kbps/5.1 Ch
Audio2: AC3/448 Kbps/2 Ch
Audio3: LPCM/1536 Kbps/2 Ch

Blu-ray Info:

Format : BDAV
Format/Info : Blu-ray Video
File size : 9.46 GiB
Duration : 59mn 20s
Overall bit rate : 22.8 Mbps
Maximum Overall bit rate : 48.0 Mbps
Video #4113
ID : 4113 (0x1011)
Menu ID : 1 (0x1)
Format : MPEG Video
Format version : Version 2
Format profile : [email protected]
Format settings, BVOP : Yes
Format settings, Matrix : Custom
Format settings, GOP : M=3, N=16
Codec ID : 2
Duration : 59mn 19s
Bit rate mode : Constant
Bit rate : 20.0 Mbps
Width : 1 280 pixels
Height : 720 pixels
Display aspect ratio : 16:9
Frame rate : 59.940 fps
Standard : Component
Color space : YUV
Chroma subsampling : 4:2:0
Bit depth : 8 bits
Scan type : Progressive
Compression mode : Lossy
Bits/(Pixel*Frame) : 0.362
Stream size : 8.44 GiB (89%)
Writing library : TMPGEnc Video Mastering Works 5 Version. 5.0.6.38
Audio #4352
ID : 4352 (0x1100)
Menu ID : 1 (0x1)
Format : PCM
Format settings, Endianness : Big
Format settings, Sign : Signed
Muxing mode : Blu-ray
Codec ID : 128
Duration : 59mn 19s
Bit rate mode : Constant
Bit rate : 1 536 Kbps
Channel(s) : 2 channels
Channel positions : Front: L R
Sampling rate : 48.0 KHz
Bit depth : 16 bits
Stream size : 652 MiB (7%)

HDTV Info:
Format : MPEG-TS
File size : 5.60 GiB
Duration : 59mn 19s
Overall bit rate : 13.5 Mbps
Video #6510
ID : 6510 (0x196E)
Menu ID : 1 (0x1)
Format : AVC
Format/Info : Advanced Video Codec
Format profile : [email protected]
Format settings, CABAC : Yes
Format settings, ReFrames : 6 frames
Codec ID : 27
Duration : 59mn 19s
Bit rate : 12.4 Mbps
Width : 1 280 pixels
Height : 720 pixels
Display aspect ratio : 16:9
Frame rate : 50.000 fps
Color space : YUV
Chroma subsampling : 4:2:0
Bit depth : 8 bits
Scan type : Progressive
Bits/(Pixel*Frame) : 0.269
Stream size : 5.13 GiB (92%)
Color primaries : BT.709-5, BT.1361, IEC 61966-2-4, SMPTE RP177
Transfer characteristics : BT.709-5, BT.1361
Matrix coefficients : BT.709-5, BT.1361, IEC 61966-2-4 709, SMPTE RP177
Audio #6522
ID : 6522 (0x197A)
Menu ID : 1 (0x1)
Format : AC-3
Format/Info : Audio Coding 3
Mode extension : CM (complete main)
Codec ID : 6
Duration : 59mn 19s
Bit rate mode : Constant
Bit rate : 448 Kbps
Channel(s) : 2 channels
Channel positions : Front: L R
Sampling rate : 48.0 KHz
Bit depth : 16 bits
Compression mode : Lossy
Stream size : 190 MiB (3%)
Language : German
Text #6530-100
ID : 6530 (0x1982)-100
Menu ID : 1 (0x1)
Format : Teletext
Language : German

DVD & Blu-ray Cover Included
links Downlaod From

01 - KatFile
DVD
Foreigner_2018_Live40thAnniversary_DVD.part1.rar - 1.2 GB
Foreigner_2018_Live40thAnniversary_DVD.part2.rar - 1.2 GB
Foreigner_2018_Live40thAnniversary_DVD.part3.rar - 526.1 MB
Blu-ray
Foreigner_2018_Live40thAnniversary_BD.part01.rar - 1.2 GB
Foreigner_2018_Live40thAnniversary_BD.part02.rar - 1.2 GB
Foreigner_2018_Live40thAnniversary_BD.part03.rar - 1.2 GB
Foreigner_2018_Live40thAnniversary_BD.part04.rar - 1.2 GB
Foreigner_2018_Live40thAnniversary_BD.part05.rar - 1.2 GB
Foreigner_2018_Live40thAnniversary_BD.part06.rar - 1.2 GB
Foreigner_2018_Live40thAnniversary_BD.part07.rar - 1.2 GB
Foreigner_2018_Live40thAnniversary_BD.part08.rar - 1.2 GB
Foreigner_2018_Live40thAnniversary_BD.part09.rar - 586.9 MB
HDTV
Foreigner_2018_Live40thAnniversary_HDTV.part1.rar - 1.2 GB
Foreigner_2018_Live40thAnniversary_HDTV.part2.rar - 1.2 GB
Foreigner_2018_Live40thAnniversary_HDTV.part3.rar - 1.2 GB
Foreigner_2018_Live40thAnniversary_HDTV.part4.rar - 1.2 GB
Foreigner_2018_Live40thAnniversary_HDTV.part5.rar - 1.2 GB
Foreigner_2018_Live40thAnniversary_HDTV.part6.rar - 121.9 MB

02 - AusFile
DVD
Foreigner_2018_Live40thAnniversary_DVD.part1.rar - 1.2 GB
Foreigner_2018_Live40thAnniversary_DVD.part2.rar - 1.2 GB
Foreigner_2018_Live40thAnniversary_DVD.part3.rar - 526.1 MB
Blu-ray
Foreigner_2018_Live40thAnniversary_BD.part01.rar - 1.2 GB
Foreigner_2018_Live40thAnniversary_BD.part02.rar - 1.2 GB
Foreigner_2018_Live40thAnniversary_BD.part03.rar - 1.2 GB
Foreigner_2018_Live40thAnniversary_BD.part04.rar - 1.2 GB
Foreigner_2018_Live40thAnniversary_BD.part05.rar - 1.2 GB
Foreigner_2018_Live40thAnniversary_BD.part06.rar - 1.2 GB
Foreigner_2018_Live40thAnniversary_BD.part07.rar - 1.2 GB
Foreigner_2018_Live40thAnniversary_BD.part08.rar - 1.2 GB
Foreigner_2018_Live40thAnniversary_BD.part09.rar - 586.9 MB
HDTV
Foreigner_2018_Live40thAnniversary_HDTV.part1.rar - 1.2 GB
Foreigner_2018_Live40thAnniversary_HDTV.part2.rar - 1.2 GB
Foreigner_2018_Live40thAnniversary_HDTV.part3.rar - 1.2 GB
Foreigner_2018_Live40thAnniversary_HDTV.part4.rar - 1.2 GB
Foreigner_2018_Live40thAnniversary_HDTV.part5.rar - 1.2 GB
Foreigner_2018_Live40thAnniversary_HDTV.part6.rar - 121.9 MB
*****/*****
Deer5001RockConcert
 

·
Registered
Joined
·
42 Posts
only is posiible downloAD THE BLURAY WITH ACCOUNT PREMIUN EXIST ANY CHANCE TO SHARE with links for download without premiun account? anyway thanks for share deer
 

·
Registered
Joined
·
18 Posts
Thanks of course! Only it is advisable to download ONLY from mega.nz or, in extreme cases, from Google.

Everything else just sucks in my opinion.

Or upload to the normal file sharing or not necessary at all!
 

·
Registered
Joined
·
18 Posts
Thanks of course! Only it is advisable to download ONLY from mega.nz or, in extreme cases, from Google.

Everything else just sucks in my opinion.

Or upload to the normal file sharing or not necessary at all!
 
1 - 8 of 8 Posts
Top