Guitars101 - Guitar Forums banner

1 - 3 of 3 Posts

·
Super Moderator
Joined
·
33,867 Posts
Discussion Starter #1
****Posted by Pagarn on .::. Index ****


Grand Magus
Bloodstock Open Air, Walton-Upon-Trent, England, UK, 2019.08.09
(ProShot PAL BD25)
PagArn Productions BD-401


Setlist :
01. Intro (Gold And Glory)
02. I, The Jury
03. Sword Of The Ocean
04. Dawn Of Fire
05. Untamed
06. Steel Versus Steel
07. Ravens Guide Our Way
08. Kingslayer
09. Valhalla Rising
10. Iron Will
11. Like The Oar Strikes The Water
12. Triumph And Power
13. Hammer Of The North
14. Outro


General
ID : 1 (0x1)
Complete name : Grand Magus - 2019-08-09 - Bloodstock, Walton-Upon-Trent, England, UK (Pagarn BD-401 BD25)\BDMV\STREAM\00003.m2ts
Format : BDAV
Format/Info : Blu-ray Video
File size : 9.67 GiB
Duration : 1 h 13 min
Overall bit rate mode : Variable
Overall bit rate : 18.9 Mb/s
Maximum Overall bit rate : 33.8 Mb/s

Video
ID : 4113 (0x1011)
Menu ID : 1 (0x1)
Format : MPEG Video
Format version : Version 2
Format profile : [email protected]
Format settings, BVOP : Yes
Format settings, Matrix : Custom
Format settings, GOP : M=3, N=18
Codec ID : 2
Duration : 1 h 13 min
Bit rate mode : Variable
Bit rate : 18.0 Mb/s
Maximum bit rate : 30.0 Mb/s
Width : 1 920 pixels
Height : 1 080 pixels
Display aspect ratio : 16:9
Frame rate : 25.000 FPS
Standard : Component
Color space : YUV
Chroma subsampling : 4:2:0
Bit depth : 8 bits
Scan type : Progressive
Scan order : Top Field First
Compression mode : Lossy
Bits/(Pixel*Frame) : 0.347
Time code of first frame : 00:00:00:00
Time code source : Group of pictures header
GOP, Open/Closed : Open
GOP, Open/Closed of first fram : Closed
Stream size : 9.22 GiB (95%)
Writing library : TMPGEnc Authoring Works 4 Version. 4.0.11.39
Color primaries : BT.709
Transfer characteristics : BT.709
Matrix coefficients : BT.709

Audio
ID : 4352 (0x1100)
Menu ID : 1 (0x1)
Format : AC-3
Format/Info : Audio Coding 3
Format settings, Endianness : Big
Codec ID : 129
Duration : 1 h 13 min
Bit rate mode : Constant
Bit rate : 128 kb/s
Channel(s) : 2 channels
Channel positions : Front: L R
Sampling rate : 48.0 kHz
Frame rate : 31.250 FPS (1536 SPF)
Bit depth : 16 bits
Compression mode : Lossy
Stream size : 67.2 MiB (1%)
Service kind : Complete Main


Lineage: Bloodstock Youtube channel -> Jdownloader 2.0 -> .mp4 > TMPGEnc Authoring Works 4 > You
Captured by PagArn

Artwork enclosed.

Enjoy and share freely !!

PagArn, April 2019



https://mega.nz/file/iw4hkJLR#ywcA4Pep2p5BVprgHWV4l9MFXzAv-h6rbEbw399htAM

https://mega.nz/file/X15TDRjS#6_ab2efLlGCUTJ46CnXtEpKQZujfRWC7tIsmTbrpgPI

https://mega.nz/file/DxhFXbTT#kSNPba6ZICapHUCh50SgRhEzOyGGgtB-UWSwmu9M9zs

https://mega.nz/file/DxwVRZwR#-4ZGCIeJ1PkvA1Cp7YR3h15qm76XP-g9OsY284BfHFg

https://mega.nz/file/K4pRybzL#I2RVO_PmIymRAsF_6ZLstP_lBj6c4zut_CI5IWw5GrQ

https://mega.nz/file/f9w1WD4A#51vCDNnoBUB7BtmW4VGD_XfCfgdg_5RBn5BagRWrjMg

https://mega.nz/file/yg52nIwL#GCIGVTarICncfR0Xh6T2XNGUPvvzhdczXsQt1SLD8ow

https://mega.nz/file/ux4E2SLJ#XkXs0mtrJOp1NJx0H573cMd-GH4zS_Mq3SG7fjJwPBw

https://mega.nz/file/axhABIiR#2_i1lYTeghaWCekLbOqvLfUwoN1BviDRLtasuONlwas
 

Attachments

1 - 3 of 3 Posts
Top