Guitars101 - Guitar Forums banner

1 - 2 of 2 Posts

·
Registered
Joined
·
24,757 Posts
Discussion Starter · #1 ·
Grateful Dead -
DeVore Field, Southwestern College, Chula Vista, CA
September 15, 1985


Jerry Garcia - Lead Guitar, Vocals
Mickey Hart - Drums
Bill Kreutzmann - Drums
Phil Lesh - Electric Bass, Vocals
Brent Mydland - Keyboards, Vocals
Bob Weir - Rhythm Guitar, Vocals


*Matrix*


-----------------------------------------------------------------
SBD (shnid=34722):

Recording Info:
SBD -> PCM -> Dat (44.1k)

Transfer Info:
Dat (Sony D8) -> SEK'D Prodif Plus -> Samplitude Professional v8.01 ->
Cool Edit Pro v2.0 -> FLAC (2 Discs Audio / 2 Discs FLAC)

All Transfers and Mastering By Charlie Miller
[email protected]
May 16, 2006

Patch Info:
SBD Cassette Master supplies West L.A. through Dupree's

Notes:
-- Seamless transition between discs
-- Numerous distorted bass notes fixed with Cool Edit Pro
-- Numerous static pops removed with Cool Edit Pro
-- Thanks to David Gans for the PCM SBD
-- Thanks to Paul Scotton and Joani Walker for the patch source

-----------------------------------------------------------------
AUD (shnid=13600):

Source: AUD: Unknown Mics (parabolic reflectors, 40" apart)>Unknown deck>
CM> C> Sony R500 w/ SBM (a/d)>WAV>CD-R.
Source provided by Michael Zelner.

Extracted with EAC and compressed to shn with MKWAct.

[12/9/02]

[Tape flip during Truckin' > Comes A Time segue. Dropout during Comes A Time. The #88814 source, taped by Rick "Coyotte" Colyard and transferred by MULETAPER, patches 50 seconds of Drums/Space.]

-----------------------------------------------------------------
Thank you to Charlie Miller for the SBD transfer,
to Michael Zelner for providing the AUD,
to Rick Colyard and MULETAPER for the AUD patch,
to John Bartlang for matrix review,
and to Steve Wojtak for suggesting this matrix.

Matrix by Hunter Seamons using Final Cut Pro (FLAC > AIFF > Final Cut w/EQ > AIFF CD tracking via Audacity > FLAC16 via xACT w/meta-tagging)
December 24, 2020


Set I
-----
d1t01 - Alabama Getaway >
d1t02 - Promised Land
d1t03 - West L.A. Fadeaway
d1t04 - Mama Tried >
d1t05 - Big River
d1t06 - Dupree's Diamond Blues
d1t07 - Smokestack Lightning >
d1t08 - Deal

Set II
-----
d1t09 - Twilight Zone >
d1t10 - Scarlet Begonias >
d1t11 - Fire On The Mountain
d2t01 - Samson And Delilah
d2t02 - She Belongs To Me
d2t03 - Truckin' >
d2t04 - Comes A Time >
d2t05 - Around And Around >
d2t06 - Drums >
d2t07 - Space >
d2t08 - U.S. Blues >
d2t09 - (I Can't Get No) Satisfaction

Encore
------
d2t10 - Brokedown Palace




length expanded size cdr WAVE problems fmt ratio filename
5:18.39 56186972 B --- -- ---xx flac 0.6558 gd85-09-15d1t01.flac
4:46.00 50450444 B --- -- ---xx flac 0.6477 gd85-09-15d1t02.flac
7:59.49 84610892 B --- -- ---xx flac 0.5898 gd85-09-15d1t03.flac
2:32.29 26881052 B --- -- ---xx flac 0.6431 gd85-09-15d1t04.flac
5:47.40 61304924 B --- -- ---xx flac 0.6186 gd85-09-15d1t05.flac
6:38.68 70367180 B --- -- ---xx flac 0.6123 gd85-09-15d1t06.flac
5:52.39 62184572 B --- -- ---xx flac 0.6076 gd85-09-15d1t07.flac
6:56.59 73521212 B --- -- ---xx flac 0.6414 gd85-09-15d1t08.flac
0:59.02 10412348 B --- -- ---xx flac 0.6833 gd85-09-15d1t09.flac
10:30.65 111284924 B --- -- ---xx flac 0.6187 gd85-09-15d1t10.flac
12:25.08 131436860 B --- -- ---xx flac 0.6065 gd85-09-15d1t11.flac
7:39.25 81026444 B --- -- ---xx flac 0.6468 gd85-09-15d2t01.flac
7:16.35 76992764 B --- -- ---xx flac 0.5916 gd85-09-15d2t02.flac
6:48.35 72053564 B --- -- ---xx flac 0.6592 gd85-09-15d2t03.flac
6:22.30 67455404 B --- -- ---xx flac 0.5667 gd85-09-15d2t04.flac
3:55.36 41538716 B --- -- ---xx flac 0.6478 gd85-09-15d2t05.flac
8:53.02 94025948 B --- -- ---xx flac 0.5317 gd85-09-15d2t06.flac
8:59.10 95103164 B --- -- ---xx flac 0.4705 gd85-09-15d2t07.flac
5:01.65 53249324 B --- -- ---xx flac 0.6769 gd85-09-15d2t08.flac
6:28.67 68600828 B --- -- ---xx flac 0.6363 gd85-09-15d2t09.flac
5:38.18 59665580 B --- -- ---xx flac 0.5942 gd85-09-15d2t10.flac

136:50.46 1448353116 B 0.6068 (21 files)

https://tinyurl.com/yxcb5dvs
 
1 - 2 of 2 Posts
Top