Guitars101 - Guitar Forums banner

1 - 5 of 5 Posts

·
Registered
Joined
·
41 Posts
Discussion Starter #1
here's the actual best and complete version of kiss' nye show in dubai.

taken two sources - first the part of the replay (taken from piratebay.org), there's intro and first seconds of drc, a short (really accepatble) "cut, followed by the complete show with outro/credits (from the rutracker-source).

all video parts new converted, audio converted to [email protected] also chapter marked. saved as mkv, maybe s.o. likes to do a blu-ray-version, but mkv works on nearly every actual player.

for all the work i'd i name it the "iceelk's version", definitiely the best quality of this show you can have until now. if there'll be another (better) version (just like a replay-version with maximum bitrate and better sound) out, i'll do upload it again.

links are working seven days, maybe s.o. will upload it to another file hoster. and to all the "members" here (and you know who you are !) who likes to leave unneeded comments, don't download my work).

pre-show from rutracker-source (cause this is complete) also available. if you want, let me know. i'll upload and publish the link. my thanx g to the original uploaders who were unknown.

have fun!

details:
General
Unique ID : 10192304414157632431424226017548311566 (0x7AAF767C875D698EAF1D4CC11CE1C0E)
Complete name : G:\Konzert\Kiss - 2020 Goodbye (concert, final, chaptered, avc, ac3).mkv
Format : Matroska
Format version : Version 4
File size : 28.0 GiB
Duration : 2 h 16 min
Overall bit rate : 29.3 Mb/s
Encoded date : UTC 2021-01-08 05:15:39
Writing application : Lavf58.43.100
Writing library : Lavf58.43.100
ErrorDetectionType : Per level 1

Video
ID : 1
Format : AVC
Format/Info : Advanced Video Codec
Format profile : [email protected]
Format settings : CABAC / 2 Ref Frames
Format settings, CABAC : Yes
Format settings, Reference frames : 2 frames
Codec ID : V_MPEG4/ISO/AVC
Duration : 2 h 16 min
Bit rate : 29.0 Mb/s
Width : 1 920 pixels
Height : 1 080 pixels
Display aspect ratio : 16:9
Frame rate mode : Constant
Frame rate : 50.000 FPS
Color space : YUV
Chroma subsampling : 4:2:0
Bit depth : 8 bits
Scan type : Progressive
Bits/(Pixel*Frame) : 0.280
Stream size : 27.0 GiB (96%)
Writing library : x264 core 160 r3000
Encoding settings : cabac=1 / ref=2 / deblock=1:0:0 / analyse=0x3:0x133 / me=hex / subme=7 / psy=1 / psy_rd=1.00:0.00 / mixed_ref=0 / me_range=16 / chroma_me=1 / trellis=1 / 8x8dct=1 / cqm=0 / deadzone=21,11 / fast_pskip=1 / chroma_qp_offset=-2 / threads=9 / lookahead_threads=1 / sliced_threads=0 / nr=0 / decimate=1 / interlaced=0 / bluray_compat=0 / constrained_intra=0 / bframes=3 / b_pyramid=0 / b_adapt=1 / b_bias=0 / direct=0 / weightb=1 / open_gop=0 / weightp=2 / keyint=500 / keyint_min=50 / scenecut=40 / intra_refresh=0 / rc_lookahead=40 / rc=abr / mbtree=1 / bitrate=29000 / ratetol=1.0 / qcomp=0.60 / qpmin=10 / qpmax=69 / qpstep=4 / vbv_maxrate=29500 / vbv_bufsize=24000 / nal_hrd=none / filler=0 / ip_ratio=1.40 / aq=3:1.00
Default : Yes
Forced : No
Color range : Limited
Color primaries : BT.709
Transfer characteristics : BT.709
Matrix coefficients : BT.709

Audio
ID : 2
Format : AC-3
Format/Info : Audio Coding 3
Commercial name : Dolby Digital
Codec ID : A_AC3
Duration : 2 h 16 min
Bit rate mode : Constant
Bit rate : 448 kb/s
Channel(s) : 2 channels
Channel layout : L R
Sampling rate : 48.0 kHz
Frame rate : 31.250 FPS (1536 SPF)
Bit depth : 32 bits
Compression mode : Lossy
Delay relative to video : 2 ms
Stream size : 438 MiB (2%)
Service kind : Complete Main
Default : Yes
Forced : No

Menu
00:00:00.000 : :Detroit Rock City
00:04:54.600 : :Shout It Out Loud
00:08:43.280 : :Deuce
00:13:12.000 : :Say Yeah
00:18:07.760 : :I Love It Loud
00:21:36.880 : :Heavens On Fire
00:25:27.920 : :Tears Are Falling
00:29:20.220 : :War Machine
00:34:28.900 : :Lick It Up
00:41:46.000 : :Dr. Love
00:45:20.240 : :100.000 Years
00:58:25.440 : :Cold Gin
01:08:21.840 : :God Of Thunder
01:16:39.440 : :psycho Circus
01:21:58.480 : :parasite
01:27:44.140 : :Love Gun
01:33:10.160 : :I Was Made For Lovin' You
01:38:44.560 : :Black Diamond
01:48:11.140 : :Beth
01:53:13.760 : :Strutter
01:57:36.020 : :Do You Love Me
02:01:38.620 : :World Guiness Record
02:04:49.620 : :Rock And Roll All Nite
02:13:28.480 : :Outro

links:

https://we.tl/t-kAyOmLyLht
https://we.tl/t-4DqUeMbT4m
https://we.tl/t-6lPtN5UCtc
https://we.tl/t-gfdyK2YBGH
https://we.tl/t-uLTT9mdZV9
https://we.tl/t-HPwbcEzMP6
https://we.tl/t-sAsyaG81fW
https://we.tl/t-a9tYHvjmvm
https://we.tl/t-WJFkWrpBf7
https://we.tl/t-8o1vhvn0ts
https://we.tl/t-U9ug7XsRaR
https://we.tl/t-8f2Q0OBy8G
 

·
Registered
Joined
·
41 Posts
Discussion Starter #2
full pre-show taken form piratebay.org

details:

General
Unique ID : 252477568093509262078005787641184373729 (0xBDF1692EA0BFBF40320732CC7619CBE1)
Complete name : E:\Filme und Serien - Temporär\Kiss - Dubai 2020\pre_show.mkv
Format : Matroska
Format version : Version 4
File size : 2.18 GiB
Duration : 57 min 58 s
Overall bit rate : 5 387 kb/s
Writing application : Lavf58.29.100
Writing library : Lavf58.29.100
ErrorDetectionType : Per level 1

Video
ID : 1
Format : AVC
Format/Info : Advanced Video Codec
Format profile : [email protected]
Format settings : CABAC / 5 Ref Frames
Format settings, CABAC : Yes
Format settings, Reference frames : 5 frames
Codec ID : V_MPEG4/ISO/AVC
Duration : 57 min 58 s
Bit rate : 4 832 kb/s
Width : 1 920 pixels
Height : 1 080 pixels
Display aspect ratio : 16:9
Frame rate mode : Constant
Frame rate : 29.970 (30000/1001) FPS
Color space : YUV
Chroma subsampling : 4:2:0
Bit depth : 8 bits
Scan type : Progressive
Bits/(Pixel*Frame) : 0.078
Stream size : 1.96 GiB (90%)
Writing library : x264 core 161 r10 4121277
Encoding settings : cabac=1 / ref=5 / deblock=1:0:0 / analyse=0x3:0x113 / me=hex / subme=8 / psy=1 / psy_rd=1.00:0.00 / mixed_ref=1 / me_range=16 / chroma_me=1 / trellis=2 / 8x8dct=1 / cqm=0 / deadzone=21,11 / fast_pskip=1 / chroma_qp_offset=-2 / threads=34 / lookahead_threads=5 / sliced_threads=0 / nr=0 / decimate=1 / interlaced=0 / bluray_compat=0 / stitchable=1 / constrained_intra=0 / bframes=3 / b_pyramid=2 / b_adapt=2 / b_bias=0 / direct=3 / weightb=1 / open_gop=0 / weightp=2 / keyint=infinite / keyint_min=29 / scenecut=40 / intra_refresh=0 / rc_lookahead=50 / rc=crf / mbtree=1 / crf=20.0 / qcomp=0.60 / qpmin=5 / qpmax=69 / qpstep=4 / vbv_maxrate=5500 / vbv_bufsize=15000 / crf_max=0.0 / nal_hrd=none / filler=0 / ip_ratio=1.40 / aq=1:1.00
Default : Yes
Forced : No
Color range : Limited
Color primaries : BT.709
Transfer characteristics : BT.709
Matrix coefficients : BT.709

Audio
ID : 2
Format : AC-3
Format/Info : Audio Coding 3
Commercial name : Dolby Digital
Codec ID : A_AC3
Duration : 57 min 58 s
Bit rate mode : Constant
Bit rate : 448 kb/s
Channel(s) : 2 channels
Channel layout : L R
Sampling rate : 48.0 kHz
Frame rate : 31.250 FPS (1536 SPF)
Compression mode : Lossy
Delay relative to video : 62 ms
Stream size : 186 MiB (8%)
Service kind : Complete Main
Default : Yes
Forced : No



link:
https://we.tl/t-FQ6qwUxQZq
 

·
Registered
Joined
·
41 Posts
Discussion Starter #5
Can you please reupload part 6? I downloaded part 7 twice by mistake... Thanks!
can' t and won't upload it again cause of the files have been expired at wetransfer. use the links in my othe thread (bd25), do it soon, files will expire on 19th. no re-upload.
 
1 - 5 of 5 Posts
Top