Guitars101 - Guitar Forums banner
  • Hello guitar enthusiasts! We are pleased to announce an Ask Me Anything discussion thread with Dutch musician Arjen Lucassen. The AMA will be going live on Tuesday, August 10th, and will run until August 12th, and can be found here. Don't miss out!
1 - 1 of 1 Posts

·
Registered
Joined
·
2,461 Posts
Discussion Starter · #1 ·
Money for Rope - Haldern Pop Festival


MPEG 4, AVC, 16 : 9, 960 x 540p, Deutsch AAC/2



Money for Rope - Haldern Pop Festival

Cover / Picture included in the download!

Content

Tracks:
01. Nova Pilota
02. Misery Lane
03. Stretch
04. Sail Past Your House
05. Rickstrom
06. Soup Bowl
07. Cuppla Days
08. Look
09. Since I Left
10. Easy Way Out

Media Info´s
GeneralUnique ID : 90586084751109844231305279858460504984 (0x44263ECD1333853C9C2E2C1B185AB398)
Complete name : Money for Rope - Haldern Pop Festival 2014.mkv
Format : Matroska
Format version : Version 4
File size : 539 MiB
Duration : 43 min 39 s
Overall bit rate : 1 726 kb/s
Encoded date : UTC 2021-06-15 10:05:13
Writing application : mkvmerge v57.0.0 ('Till The End') 64-bit
Writing library : libebml v1.4.2 + libmatroska v1.6.4

Video
ID : 1
Format : AVC
Format/Info : Advanced Video Codec
Format profile : [email protected]
Format settings : CABAC / 5 Ref Frames
Format settings, CABAC : Yes
Format settings, Reference frames : 5 frames
Codec ID : V_MPEG4/ISO/AVC
Duration : 43 min 39 s
Bit rate : 1 535 kb/s
Width : 960 pixels
Height : 544 pixels
Display aspect ratio : 16:9
Frame rate mode : Constant
Frame rate : 25.000 FPS
Color space : YUV
Chroma subsampling : 4:2:0
Bit depth : 8 bits
Scan type : Progressive
Bits/(Pixel*Frame) : 0.118
Stream size : 479 MiB (89%)
Language : English
Default : Yes
Forced : No
Color range : Limited
Color primaries : BT.709
Transfer characteristics : BT.709
Matrix coefficients : BT.709

Audio
ID : 2
Format : AAC LC
Format/Info : Advanced Audio Codec Low Complexity
Codec ID : A_AAC-2
Duration : 43 min 39 s
Bit rate : 192 kb/s
Channel(s) : 2 channels
Channel layout : L R
Sampling rate : 48.0 kHz
Frame rate : 46.875 FPS (1024 SPF)
Compression mode : Lossy
Delay relative to video : -80 ms
Stream size : 59.2 MiB (11%)
Language : English
Default : Yes
Forced : No



Darsteller: Money for Rope
MPEG 4, AVC, 16 : 9, 960 x 540p, Deutsch AAC/2
Sprache: Deutsch

Bildseitenformat: 16 : 9
Datenträger: 1 MKV - File (s)
Studio: WDR
Erscheinungsjahr: 2014
Produktionsjahr: 2014
Laufzeit: ca. 43 Minuten
Größe ca. 539 Megabyte in 2 Links
Größe der Parts: 500 Megabyte




Existing mirrors are always compatible!!!



Download from # Filefactory.com; Ddownload.com; Rapidgator.net



click me



# Passwort

Dorian


 
1 - 1 of 1 Posts
Top