Guitars101 - Guitar Forums banner

1 - 1 of 1 Posts

·
Registered
Joined
·
24,757 Posts
Discussion Starter · #1 ·
Jimmy Page/Robert Plant
1995.03.20
Lexington, Kentucky USA
Rupp Arena


AUD Recording - Radio Shack Mics

Lineage; 48kHz DAT Master > DAT clone > Audio DVD
Additional Lineage: DVD > DVD Audio Extractor > 16/44 WAV File >
HUB Audio Tools > 16/44 WAV Tracks > TLH > Tested for SBE's > FLAC Level 8

FLAC files named to match track name, tagged in JetAudio, and new FFP/MD5 files created.

Disc 1
101 - Voyages of Bran
102 - The Immigrant Song_The Wanton Song
103 - Bring it on Home
104 - Celebration Day
105 - Ramble On
106 - Dancing Days
107 - Shake My Tree
108 - Lullaby
109 - No Quarter
110 - Gallows Pole
111 - Hurdy Gurdy Solo
112 - Nobody's Fault But Mine
113 - The Song Remains the Same
114 - Since I've Been Loving You
115 - Friends
116 - Calling to You

Disc 2
201 - Four Sticks
202 - In the Evening
203 - Encore Cheer
204 - Black Dog
205 - Kashmir

FLAC fingerprint and MD5 verification files are included.
-----------------------------------------------------------------------------------------------------------
Mastered by Jason P.
Royal Orleans

Thanks to Presence for originally sharing this. It is a clear but slightly distant
sounding recording.
-----------------------------------------------------------------------------------------------------------

101 - Voyages of Bran.flac: audio data is cut on a sector boundary.
102 - The Immigrant Song_The Wanton Song.flac: audio data is cut on a sector boundary.
103 - Bring it on Home.flac: audio data is cut on a sector boundary.
104 - Celebration Day.flac: audio data is cut on a sector boundary.
105 - Ramble On.flac: audio data is cut on a sector boundary.
106 - Dancing Days.flac: audio data is cut on a sector boundary.
107 - Shake My Tree.flac: audio data is cut on a sector boundary.
108 - Lullaby.flac: audio data is cut on a sector boundary.
109 - No Quarter.flac: audio data is cut on a sector boundary.
110 - Gallows Pole.flac: audio data is cut on a sector boundary.
111 - Hurdy Gurdy Solo.flac: audio data is cut on a sector boundary.
112 - Nobody's Fault But Mine.flac: audio data is cut on a sector boundary.
113 - The Song Remains the Same.flac: audio data is cut on a sector boundary.
114 - Since I've Been Loving You.flac: audio data is cut on a sector boundary.
115 - Friends.flac: audio data is cut on a sector boundary.
116 - Calling to You.flac: audio data is cut on a sector boundary.
201 - Four Sticks.flac: audio data is cut on a sector boundary.
202 - In the Evening.flac: audio data is cut on a sector boundary.
203 - Encore Cheer.flac: audio data is cut on a sector boundary.
204 - Black Dog.flac: audio data is cut on a sector boundary.
205 - Kashmir.flac: audio data is cut on a sector boundary.

There were no sector boundary errors.

101 - Voyages of Bran.flac: tested ok (file is decodable without error).
102 - The Immigrant Song_The Wanton Song.flac: tested ok (file is decodable without error).
103 - Bring it on Home.flac: tested ok (file is decodable without error).
104 - Celebration Day.flac: tested ok (file is decodable without error).
105 - Ramble On.flac: tested ok (file is decodable without error).
106 - Dancing Days.flac: tested ok (file is decodable without error).
107 - Shake My Tree.flac: tested ok (file is decodable without error).
108 - Lullaby.flac: tested ok (file is decodable without error).
109 - No Quarter.flac: tested ok (file is decodable without error).
110 - Gallows Pole.flac: tested ok (file is decodable without error).
111 - Hurdy Gurdy Solo.flac: tested ok (file is decodable without error).
112 - Nobody's Fault But Mine.flac: tested ok (file is decodable without error).
113 - The Song Remains the Same.flac: tested ok (file is decodable without error).
114 - Since I've Been Loving You.flac: tested ok (file is decodable without error).
115 - Friends.flac: tested ok (file is decodable without error).
116 - Calling to You.flac: tested ok (file is decodable without error).
201 - Four Sticks.flac: tested ok (file is decodable without error).
202 - In the Evening.flac: tested ok (file is decodable without error).
203 - Encore Cheer.flac: tested ok (file is decodable without error).
204 - Black Dog.flac: tested ok (file is decodable without error).
205 - Kashmir.flac: tested ok (file is decodable without error).

No errors occured.

Disc 1
length expanded size cdr WAVE problems fmt ratio filename
1:18.10 13782764 B --- -- ---xx flac 0.3823 101 - Voyages of Bran.flac
3:40.25 38866844 B --- -- ---xx flac 0.3955 102 - The Immigrant Song_The Wanton Song.flac
1:29.06 15713756 B --- -- ---xx flac 0.3830 103 - Bring it on Home.flac
2:54.71 30860636 B --- -- ---xx flac 0.3783 104 - Celebration Day.flac
5:19.55 56401004 B --- -- ---xx flac 0.3579 105 - Ramble On.flac
4:24.60 46710764 B --- -- ---xx flac 0.3855 106 - Dancing Days.flac
7:24.61 78465116 B --- -- ---xx flac 0.3715 107 - Shake My Tree.flac
6:13.07 65813708 B --- -- ---xx flac 0.3450 108 - Lullaby.flac
3:55.36 41538716 B --- -- ---xx flac 0.3188 109 - No Quarter.flac
4:52.23 51562940 B --- -- ---xx flac 0.3784 110 - Gallows Pole.flac
3:59.61 42303116 B --- -- ---xx flac 0.3635 111 - Hurdy Gurdy Solo.flac
3:18.32 35002508 B --- -- ---xx flac 0.3595 112 - Nobody's Fault But Mine.flac
6:31.65 69125324 B --- -- ---xx flac 0.3886 113 - The Song Remains the Same.flac
8:33.65 90646124 B --- -- ---xx flac 0.3653 114 - Since I've Been Loving You.flac
4:17.28 45400700 B --- -- ---xx flac 0.3423 115 - Friends.flac
11:21.70 120293084 B --- -- ---xx flac 0.3611 116 - Calling to You.flac
79:36.00 842487104 B 0.3656 (16 files)

No errors occured.

Disc 2
length expanded size cdr WAVE problems fmt ratio filename
5:00.48 53032940 B --- -- ---xx flac 0.3535 201 - Four Sticks.flac
8:54.68 94357580 B --- -- ---xx flac 0.3710 202 - In the Evening.flac
3:55.59 41592812 B --- -- ---xx flac 0.3354 203 - Encore Cheer.flac
5:41.61 60295916 B --- -- ---xx flac 0.3697 204 - Black Dog.flac
18:31.21 196029836 B --- -- ---xx flac 0.3438 205 - Kashmir.flac
42:04.32 445309084 B 0.3534 (5 files)

No errors occured.

121:40.32 1287796188 B 0.3614 (21 files)

MD5
809764ed4d6008f4c77115a52c574292 *101 - Voyages of Bran.flac
80fabeabeed2642c86fd7bd88bc5b3a2 *102 - The Immigrant Song_The Wanton Song.flac
e69b5b7c7cad9b70f4f384a99976d42e *103 - Bring it on Home.flac
d7735f4e618af9f9f8dcd6eea3cf9cd3 *104 - Celebration Day.flac
c9068632f4ee4ce8f204d1a84d9cf1f3 *105 - Ramble On.flac
7bb4e20fc8f443ad056b2a81b8acd664 *106 - Dancing Days.flac
a9fd6cfde731403f1f500fc6d55e41c5 *107 - Shake My Tree.flac
fad0355f66dd2989183988f235a023c2 *108 - Lullaby.flac
2c19a1ee19b69b2594dfef16a1cd1e0d *109 - No Quarter.flac
6978155f0585801b64fd7192409ca6cd *110 - Gallows Pole.flac
578e2a58e4f303dd86bb6b33552eef41 *111 - Hurdy Gurdy Solo.flac
a5624b5a391f7f6cbc693c42eaf1e4e2 *112 - Nobody's Fault But Mine.flac
067c516896b213feff083a34441e857e *113 - The Song Remains the Same.flac
efffd09b098287f9e514f1f2ff0fe9fd *114 - Since I've Been Loving You.flac
a47ff4bef297db1a6fb1e93fb68eb13c *115 - Friends.flac
661cb8a56f50ea27bc7319f71fc0ac6f *116 - Calling to You.flac
4d358b11400c3b4736dec3cd362f9951 *201 - Four Sticks.flac
ebdfdb0d2ad9c18de163766eeeae4ef3 *202 - In the Evening.flac
4fd2b401ba67cbaf6e727ef157a7768d *203 - Encore Cheer.flac
6589b620b1cc78b5d1a6b9aaa79eab83 *204 - Black Dog.flac
4ec025f532c9f3d388dae6777cbff984 *205 - Kashmir.flac

No errors occured.

FFP
101 - Voyages of Bran.flac:a371e2b17ecca643ec4c0989a94cf15c
102 - The Immigrant Song_The Wanton Song.flac:77066b60e3b1320033edb36f97044ed9
103 - Bring it on Home.flac:2a6d81071cbd5be2755a923937179790
104 - Celebration Day.flac:1e050097f0cf90384c9dcf62aec1dee0
105 - Ramble On.flac:663bc0526c174606d11f5aa07e4a6e03
106 - Dancing Days.flac:7ffd643a7818616bcdb8b91e0072ade8
107 - Shake My Tree.flac:3a7fe96263f13eff6b006a15fa068db8
108 - Lullaby.flac:3c75b3a18332029115b3e781bbb6ddf0
109 - No Quarter.flac:924fe3d7503324aa4a7cb2839a69711c
110 - Gallows Pole.flac:0d05a5a286e33d0f3fb428bf657cda4e
111 - Hurdy Gurdy Solo.flac:652aa0ac7eebd257cf9746776532ce44
112 - Nobody's Fault But Mine.flac:96b462f9f1caf8d0c723fdb44fca966f
113 - The Song Remains the Same.flac:24677d53b7ea21371fd3ae93f165d454
114 - Since I've Been Loving You.flac:5ef314adc6590b0ec8192c0b9d77f144
115 - Friends.flac:b2b5bb4ee2968dd6a88cecadab16cced
116 - Calling to You.flac:a20e427eba5cfa36a6f269800c984c41
201 - Four Sticks.flac:2cf9f19dbe58a951a806848f6eaf704e
202 - In the Evening.flac:05adf95c1d50d10968324829573b418a
203 - Encore Cheer.flac:f1d9a5ce8086a7b7e01f35a86d290643
204 - Black Dog.flac:052be51bafa28b5c1cb098a1fcdb5052
205 - Kashmir.flac:561f13d7fe73c6173286043a8fa04bb0

No errors occured.


https://tinyurl.com/y9ufxk8e
 
1 - 1 of 1 Posts
Top