Guitars101 - Guitar Forums banner
  • Hello guitar enthusiasts! We are pleased to announce an Ask Me Anything discussion thread with Dutch musician Arjen Lucassen. The AMA will be going live on Tuesday, August 10th, and will run until August 12th, and can be found here. Don't miss out!
1 - 1 of 1 Posts

·
Registered
Joined
·
2,461 Posts
Discussion Starter · #1 ·
Raging Fyah - Summerjam


MPEG 4, AVC, 16 : 9, 960 x 540p, Deutsch AAC/2



Raging Fyah - Summerjam

Cover / Picture included in the download!

Content

Tracks:
01. World A People
02. Naah Look Back
03. Step Outta Babylon
04. Irie Vibe
05. Music Isn't Biased
06. Jah Glory
07. Far Away
08. First Love
09. Running Away
10. Behold
11. Judgement Day
12. I And I

Media Info´s
GeneralUnique ID : 191319491089121040741063938904079722599 (0x8FEECB2ED4F0A98EE8B30532FF73E867)
Complete name : Raging Fyah - Summerjam 2014.mkv
Format : Matroska
Format version : Version 4
File size : 835 MiB
Duration : 1 h 7 min
Overall bit rate : 1 726 kb/s
Encoded date : UTC 2021-06-16 07:43:40
Writing application : mkvmerge v58.0.0 ('Supper's Ready') 64-bit
Writing library : libebml v1.4.2 + libmatroska v1.6.4

Video
ID : 1
Format : AVC
Format/Info : Advanced Video Codec
Format profile : [email protected]
Format settings : CABAC / 5 Ref Frames
Format settings, CABAC : Yes
Format settings, Reference frames : 5 frames
Codec ID : V_MPEG4/ISO/AVC
Duration : 1 h 7 min
Bit rate : 1 535 kb/s
Width : 960 pixels
Height : 544 pixels
Display aspect ratio : 16:9
Frame rate mode : Constant
Frame rate : 25.000 FPS
Color space : YUV
Chroma subsampling : 4:2:0
Bit depth : 8 bits
Scan type : Progressive
Bits/(Pixel*Frame) : 0.118
Stream size : 742 MiB (89%)
Language : English
Default : Yes
Forced : No
Color range : Limited
Color primaries : BT.709
Transfer characteristics : BT.709
Matrix coefficients : BT.709

Audio
ID : 2
Format : AAC LC
Format/Info : Advanced Audio Codec Low Complexity
Codec ID : A_AAC-2
Duration : 1 h 7 min
Bit rate : 192 kb/s
Channel(s) : 2 channels
Channel layout : L R
Sampling rate : 48.0 kHz
Frame rate : 46.875 FPS (1024 SPF)
Compression mode : Lossy
Delay relative to video : -80 ms
Stream size : 91.6 MiB (11%)
Language : English
Default : Yes
Forced : No



Darsteller: Raging Fyah
MPEG 4, AVC, 16 : 9, 960 x 540p, Deutsch AAC/2
Sprache: Deutsch

Bildseitenformat: 16 : 9
Datenträger: 1 MKV - File (s)
Studio: WDR
Erscheinungsjahr: 2014
Produktionsjahr: 2014
Laufzeit: ca. 67 Minuten
Größe ca. 834 Megabyte in 2 Links
Größe der Parts: 500 Megabyte




Existing mirrors are always compatible!!!



Download from # Filefactory.com; Ddownload.com; Rapidgator.net



click me



# Passwort

Dorian


 
1 - 1 of 1 Posts
Top