Guitars101 - Guitar Forums banner
  • Hello guitar enthusiasts! We are pleased to announce an Ask Me Anything discussion thread with Dutch musician Arjen Lucassen. The AMA will be going live on Tuesday, August 10th, and will run until August 12th, and can be found here. Don't miss out!
1 - 2 of 2 Posts

·
Registered
Joined
·
25,633 Posts
Discussion Starter · #1 ·
TALKING HEADS -
Jaap Eden Hal, Amsterdam Holland;
December 11, 1980

d1t01 Psycho Killer
d1t02 Warning Sign
d1t03 Stay Hungry
d1t04 Cities
d1t05 band intros
d1t06 I Zimbra
d1t07 Drugs
d1t08 Once in a Lifetime
d2t01 Animals
d2t02 Houses in Motion
d2t03 Born Under Punches
d2t04 Crosseyed & Painless
d2t05 Life During Wartime
d2t06 Encore 1: Take Me To the River
d2t07 Encore 2: The Great Curve

Soundboard (mono) tape from the collection of Hans Devente, tape #00.
Transfer by Hans: Cassette > Nakamichi Dragon > Audacity > WAV > FLAC.
Edits: FLAC > TLH > Wavelab > CD-Wave > TLH > FLAC 1644 tagged.

Psycho Killer fades in on intro. Small file sizes due to mono WAV's.

THANKS to Hans for making this gem of a recording available...enjoy!

ac8ca4433016b6cab199a25df2d1e8bc *th1980-12-11d1t01.flac
93e51e5fd3ce90c8393ce0011da10f1a *th1980-12-11d1t02.flac
aab7d9385d655003f1ae80b56f96506a *th1980-12-11d1t03.flac
52ab47c14ece5e8fc062e71ef76580e4 *th1980-12-11d1t04.flac
e05bd2fa955faaec1a48ae8dac72e5b8 *th1980-12-11d1t05.flac
4217d40d7d35482959e6abdd361aeda7 *th1980-12-11d1t06.flac
4d3103acc066a914f84d4dda0172ef93 *th1980-12-11d1t07.flac
fd9e5cc0dfd8512504f676b5b6080ff3 *th1980-12-11d1t08.flac
57384b5ebe16a614875bfb0457626817 *th1980-12-11d2t01.flac
eef3611a0cd789bc65a5ad1255f1dc79 *th1980-12-11d2t02.flac
0b3a4da0b78d4d11a87e0ee79549ca3d *th1980-12-11d2t03.flac
4085c0bfed845d2949de09b2b9545478 *th1980-12-11d2t04.flac
8cf7132c50d096e50d6b125a664858d0 *th1980-12-11d2t05.flac
23bdd0f3892a3f6e49f1e215af0f31b8 *th1980-12-11d2t06.flac
598570a525cfbec9391e408889ddf3cb *th1980-12-11d2t07.flac

th1980-12-11d1t01.flac:c2af325c60158c5ca9ee0a4ab1fb5679
th1980-12-11d1t02.flac:d24d9a012d0f408abc9cb00fa2ddf320
th1980-12-11d1t03.flac:6e670492d965f7565b2b82426c84fd04
th1980-12-11d1t04.flac:73eb56281120dc0a69663958fdd45d54
th1980-12-11d1t05.flac:2ee0e799a8fde67cc24e8170c9cb224b
th1980-12-11d1t06.flac:ce49f008588109acaed54976f95af9e6
th1980-12-11d1t07.flac:74db2e40da6b69a895b8ffb288e35278
th1980-12-11d1t08.flac:854c16b38bffe941057c8bcb3d2d0925
th1980-12-11d2t01.flac:75ea1629eb4c3e0c9b29e7ac47e290d0
th1980-12-11d2t02.flac:1e9bd0cae48d0bd8b7ae7d8404988d64
th1980-12-11d2t03.flac:e022f436f07c81e436cfa8f4980cf202
th1980-12-11d2t04.flac:a3523b5554e429bedd585dcccb16e449
th1980-12-11d2t05.flac:df0af3c36a1de43d0665aaef67461dfe
th1980-12-11d2t06.flac:6cb7ce4504987151b2612b33e2f556ad
th1980-12-11d2t07.flac:e81e5d5d92c8aeb402a2459e5841bb1d

length expanded size cdr WAVE problems fmt ratio filename
5:30.68 58371980 B --- -- ---xx flac 0.3352 th1980-12-11d1t01.flac
6:01.46 63788636 B --- -- ---xx flac 0.3278 th1980-12-11d1t02.flac
4:03.68 43025180 B --- -- ---xx flac 0.3215 th1980-12-11d1t03.flac
5:19.08 56290460 B --- -- ---xx flac 0.3317 th1980-12-11d1t04.flac
1:29.66 15854876 B --- -- ---xx flac 0.2604 th1980-12-11d1t05.flac
4:35.01 48512396 B --- -- ---xx flac 0.3417 th1980-12-11d1t06.flac
5:21.65 56777324 B --- -- ---xx flac 0.3282 th1980-12-11d1t07.flac
5:38.04 59632652 B --- -- ---xx flac 0.3317 th1980-12-11d1t08.flac
4:50.24 51212492 B --- -- ---xx flac 0.3187 th1980-12-11d2t01.flac
7:11.00 76028444 B --- -- ---xx flac 0.3141 th1980-12-11d2t02.flac
8:43.00 92257244 B --- -- ---xx flac 0.3168 th1980-12-11d2t03.flac
7:26.12 78702668 B --- -- ---xx flac 0.3388 th1980-12-11d2t04.flac
5:19.22 56323388 B --- -- ---xx flac 0.3368 th1980-12-11d2t05.flac
6:18.24 66735692 B --- -- ---xx flac 0.3246 th1980-12-11d2t06.flac
7:39.41 81064076 B --- -- ---xx flac 0.3290 th1980-12-11d2t07.flac
85:27.74 904577508 B 0.3267 (15 files)

No errors occured.

https://tinyurl.com/yarznpf2

:eek4:
 
1 - 2 of 2 Posts
Top