Guitars101 - Guitar Forums banner
1 - 1 of 1 Posts

·
Registered
Joined
·
25,792 Posts
Discussion Starter · #1 ·
TALKING HEADS -
Le Palace, Paris, France;
December 10, 1979



01 Artists Only
02 Stay Hungry
03 Cities
04 Paper
05 Mind
06 The Book I Read
07 Air
08 New Feeling
09 Animals
10 /Love -> Building on Fire
11 Found a Job
12 Memories Can't Wait
13 Psycho Killer
14 crowd
15 Life During Wartime
16 Take Me to the River
17 crowd
18 Who Is It?

Source: Mono AUD (unknown gear) MAC > cassette copy via BFOQ.

Transfer: Maxell UD-90 > Nakamichi CR-5A (Dolby off) > Edirol
FA-66 > Wavelab 2448 > R8Brain > CD-Wave > TLH > FLAC 1644 tagged.
Transfer by Talking Heads Concert History

85940ac0dde18c0050194791f14c0aea *th1979-12-10t01.flac
b733f29fa66640ec9f56c201bdbd3ba5 *th1979-12-10t02.flac
956a6886ad729daf449ef43b47323930 *th1979-12-10t03.flac
96e5b7652b396c11585207aac01da160 *th1979-12-10t04.flac
d59a9b4e0e9b2522fb5fb7540c1356c8 *th1979-12-10t05.flac
33ece4d28e0a1f9d9c42010e7f8b0096 *th1979-12-10t06.flac
38ee3970a8ef6d12443c6288c2ae3f88 *th1979-12-10t07.flac
049543af595abf959a0ad15c976fa53f *th1979-12-10t08.flac
413904e0cf92b1c8a56549a5d9482c66 *th1979-12-10t09.flac
5ca40226dba9bdb9c6989969e4366320 *th1979-12-10t10.flac
6758d5d9439197edd6eb20bc628fc443 *th1979-12-10t11.flac
31aa92af80f5475b79149edc17150784 *th1979-12-10t12.flac
c0702356f4f4a2ccf6d1a41579d31854 *th1979-12-10t13.flac
ab533db17dfdfec3adbda22acad36433 *th1979-12-10t14.flac
21a88280aaccb79ea6f17f9f39093f2a *th1979-12-10t15.flac
bee8ec11d785b94ec315c814f8fc383d *th1979-12-10t16.flac
59513b8e14b1eb1c90763dba367f1a5b *th1979-12-10t17.flac
483d2aa8bd4beedb67d978115b4f9411 *th1979-12-10t18.flac

th1979-12-10t01.flac:1a056b742d3f5dff7434806bb1dc48ea
th1979-12-10t02.flac:acba2342b982a42ae449871041ac0d83
th1979-12-10t03.flac:dd079c658d10fa040f7d32946e26558f
th1979-12-10t04.flac:f00db69f23605ff1001435c4a3762e31
th1979-12-10t05.flac:c4adcc362d59c3554ecc960596ed0931
th1979-12-10t06.flac:d33be74d5873726cdb03170600c9ad9d
th1979-12-10t07.flac:cd969c5450afa4c10bf92ad2a3df2d6a
th1979-12-10t08.flac:d6a3c99a9291d15dceab2dcb6485c40a
th1979-12-10t09.flac:7f4d285a41b701af414703f6dcb2735b
th1979-12-10t10.flac:8310602ab1c3c42e7024c664b8a9d25e
th1979-12-10t11.flac:1aabebbb65ba8c7107137040393bd1b1
th1979-12-10t12.flac:6a9c00eca72480cf1fcbb0aac8444d35
th1979-12-10t13.flac:9566406744f549cc09243da153b73f3f
th1979-12-10t14.flac:add1c5fbd2f6f32e94e24eba7ea45622
th1979-12-10t15.flac:0c75c90cd1e4beccb95a6e8d1f9e4ca2
th1979-12-10t16.flac:08dc50bb59a5357163404beca33f6be1
th1979-12-10t17.flac:9e135769cb48d24f466e44a89fe175a3
th1979-12-10t18.flac:706cc489dfb931be75f9a219c5885afd

length expanded size cdr WAVE problems fmt ratio filename
5:42.15 60364124 B --- -- ---xx flac 0.3441 th1979-12-10t01.flac
3:46.53 39991100 B --- -- ---xx flac 0.3474 th1979-12-10t02.flac
4:48.52 50925548 B --- -- ---xx flac 0.3453 th1979-12-10t03.flac
2:32.52 26935148 B --- -- ---xx flac 0.3426 th1979-12-10t04.flac
5:25.18 57372380 B --- -- ---xx flac 0.3464 th1979-12-10t05.flac
5:31.17 58428428 B --- -- ---xx flac 0.3431 th1979-12-10t06.flac
3:58.61 42126716 B --- -- ---xx flac 0.3460 th1979-12-10t07.flac
4:24.32 46644908 B --- -- ---xx flac 0.3452 th1979-12-10t08.flac
3:28.39 36782972 B --- -- ---xx flac 0.3478 th1979-12-10t09.flac
3:53.05 41113004 B --- -- ---xx flac 0.3443 th1979-12-10t10.flac
5:23.62 57123068 B --- -- ---xx flac 0.3446 th1979-12-10t11.flac
3:59.06 42173756 B --- -- ---xx flac 0.3435 th1979-12-10t12.flac
7:14.16 76595276 B --- -- ---xx flac 0.3422 th1979-12-10t13.flac
1:26.68 15330380 B --- -- ---xx flac 0.3330 th1979-12-10t14.flac
4:05.57 43352108 B --- -- ---xx flac 0.3434 th1979-12-10t15.flac
5:26.64 57656972 B --- -- ---xx flac 0.3382 th1979-12-10t16.flac
1:24.68 14977580 B --- -- ---xx flac 0.3320 th1979-12-10t17.flac
2:32.24 26869292 B --- -- ---xx flac 0.3387 th1979-12-10t18.flac
75:05.34 794762760 B 0.3434 (18 files)

No errors occured.

https://tinyurl.com/y398t8mp


:runaway:
 
1 - 1 of 1 Posts
Top