Guitars101 - Guitar Forums banner
  • Hello guitar enthusiasts! We are pleased to announce an Ask Me Anything discussion thread with Dutch musician Arjen Lucassen. The AMA will be going live on Tuesday, August 10th, and will run until August 12th, and can be found here. Don't miss out!
1 - 1 of 1 Posts

·
Registered
Joined
·
25,633 Posts
Discussion Starter · #1 ·
TALKING HEADS -
My Father's Place, Roslyn NY;
July 27, 1976



01 Artists Only
02 Psycho Killer
03 New Feeling
04 Happy Day
05 The Book I Read
06 Thank You for Sending Me an Angel
07 So Much in Love
08 Stay Hungry
09 I'm Not in Love
10 tuning
11 Encore: Love is All Around

Source: CB Master Cassette via JEMS,

Recording Gear ???

JEMS 2020 Transfer: CB TDK SA 90 Master Cassette Reshelled > Nakamichi CR-7A (azimuth adjustment) > Sound Devices USBPre 2 > Audacity 2.0 capture > iZotope RX restoration and Ozone mastering > .wav1644 > Wavelab (small edits & speed adjustment by nfagdtrfb) > CD-Wave > TLH > FLAC 1644 (tagged).


JEMS Notes:
We've been fortunate to know CB for a few decades, first getting to know him for his pioneering work as one of the first serious Bruce Springsteen tapers along with his friend Joe Kivak.



CB has always been generous in the lending of tapes, and when he recently moved away from California, he gave JEMS his reel to reel collection along with some nice, no longer needed gear.



Among those reels were copies of the Talking Heads recordings CB made, some of best quality early tapes of the band. DIME is fortunate to have nfagdtrfb curating an on-going series of Talking Heads releases from the best possible sources, including CB's tapes which have long been in circulation. But when I took a listen, I couldn't help but wonder if a better transfer might yield a superior result.



A few months ago I asked CB if he still had the master cassettes and he sent them my way. This show was was the second time CB recorded Talking Heads, back at My Father's Place on Long Island where they were opening for Television. This time CB recorded on a TDK SA 90, which holds up far better than Memorex tapes, but still required some work as the plastic hubs on TDK tape of this age often atrophy and break. I put in a new hub, spliced the tape back on and the transfer was flawless from there.



The quality of this July show is comparable to the June sets and among the highest quality recordings of the band from this formative period. I will leave it to nfagdtrfb to provide further background. Thanks to CB for letting us make what we hope is the definitive transfer of this historic material.

nfagdtrfb Notes:

Regarding the date of this show... The master tape (and earlier file-set version that circulates) is marked "July 28, 1976". According to newspaper ads, TH & TV played one night at MFP, Tuesday July 27th, and then a four-night run at CBGB's, Wednesday July 28th thru Saturday July 31st. Despite confusion about the date, this recording is clearly from MFP based on the crowd-noise, sound of venue, and similarity to the June 26th recording, and above all, taper CB's own account of having taped at MFP.

Along with the colorful comments/light-heckling from the crowd, this is a solid early-era set, and another great recording job by taper CB. This features one of two known versions of DB warbling his way thru a cover of the Tymes 1963 doo-wop number "So Much in Love". Tina's "ooh-ooh-ooh" backing vocals are barely audible buried in the background. This is also the earliest known version of "Happy Day", which was subsequently added to almost all their setlists in 76 & early-77; at one time DB had originally planned for the song to be on their first single.

Guessing from the song selection, this looks like the early show set opening for Television, or it's possible there was only a single show by each band on this Tuesday night. THANKS to the JEMS crew & taper CB for providing this historical source!


4b13f0119d2963f39ba1bf8e3f58584c *th1976-07-27t01.flac
f78af0477348433568ed6590d2711a19 *th1976-07-27t02.flac
a19ceebb410e7d0788e324afc1a06c08 *th1976-07-27t03.flac
8b0976056707b2a963ebd6437ded3a76 *th1976-07-27t04.flac
23cde688b822ab4240e3bb138e83fee4 *th1976-07-27t05.flac
ec2342f6cec0b2aead054631c9a66660 *th1976-07-27t06.flac
2532bc2404f2f81f680ea9f63a73d705 *th1976-07-27t07.flac
0bbec191da1a3180c1a78794c459b4ba *th1976-07-27t08.flac
0db71ba2beb479412149aa94b7a4c15e *th1976-07-27t09.flac
29088ee0313d70bdf2034d4920e2706f *th1976-07-27t10.flac
7f429b9ddb4d1bf40198a501cd4fba31 *th1976-07-27t11.flac

th1976-07-27t01.flac:4ffb6d5525bc9d0d6c0afed63b47572f
th1976-07-27t02.flac:be5914140b97a33328a211d10d3d28c1
th1976-07-27t03.flac:c404a57cdaada7d30ce10dd113a336c9
th1976-07-27t04.flac:5668d59f111f54fbb15650f349325656
th1976-07-27t05.flac:27601216cdb51a542be424de29dad588
th1976-07-27t06.flac:ccf687f68f713afe8d7436480834237d
th1976-07-27t07.flac:3ce33a63984292a4f56eb814fe6666bc
th1976-07-27t08.flac:1c9bae990bdc7f5cb26f76dfce9e90ba
th1976-07-27t09.flac:c8bf3d0b761ef6f08b7f8fa6be5ca344
th1976-07-27t10.flac:762660ae40a193019832a5d8d05b0d61
th1976-07-27t11.flac:a73beba75bc7b95d711de95ce476ce30

length expanded size cdr WAVE problems fmt ratio filename
6:07.22 64790588 B --- -- ---xx flac 0.3746 th1976-07-27t01.flac
4:33.41 48253676 B --- -- ---xx flac 0.3796 th1976-07-27t02.flac
3:52.14 40957772 B --- -- ---xx flac 0.3743 th1976-07-27t03.flac
4:41.57 49702508 B --- -- ---xx flac 0.3669 th1976-07-27t04.flac
5:00.21 52969436 B --- -- ---xx flac 0.3723 th1976-07-27t05.flac
3:38.28 38521100 B --- -- ---xx flac 0.3667 th1976-07-27t06.flac
3:38.68 38615180 B --- -- ---xx flac 0.3631 th1976-07-27t07.flac
6:11.34 65524412 B --- -- ---xx flac 0.3689 th1976-07-27t08.flac
4:46.58 50586860 B --- -- ---xx flac 0.3792 th1976-07-27t09.flac
1:35.57 16892108 B --- -- ---xx flac 0.3386 th1976-07-27t10.flac
3:44.65 39666524 B --- -- ---xx flac 0.3810 th1976-07-27t11.flac
47:51.15 506480164 B 0.3716 (11 files)

No errors occured.

https://tinyurl.com/yaqgvn86

:eek4:
 
1 - 1 of 1 Posts
Top