Guitars101 - Guitar Forums banner

1 - 3 of 3 Posts

·
Registered
Joined
·
25,084 Posts
Discussion Starter · #1 ·
TALKING HEADS -
Palasport, Bologna, Italy;
December 16, 1980



01 Psycho Killer
02 Warning Sign
03 Stay Hungry
04 Cities
05 band intros
06 I Zimbra
07 Drugs
08 Once in a Lifetime
09 Animals
10 Houses in//Motion (tape-flip at 2:03)
11 Born Under Punches
12 Crosseyed & Painless
13 Life During Wartime
14 Encore 1: Take Me to the River
15 Encore 2: The Great Curve

Source: Mono AUD, unknown gear & lineage cassette.

Transfer: Unknown cassette > WAV 1644 by MauroR.
WAV > Wavelab > CD-Wave > TLH > FLAC 1644 tagged.

Note: This recording is different from the two that currently
circulate from this show. Big thanks to MauroR for saving his
old cassette, and to the accountant for providing this source.
Edited by Talking Heads Concert History

8f1d6f7d9f89a29f216edd115e0498f3 *th1980-12-16t01.flac
6671d234fecb87420ed4a9c030d01add *th1980-12-16t02.flac
6f68b851cc8b48c972da30a6645aeac5 *th1980-12-16t03.flac
32d10088a29c40774ca1516d3d54758c *th1980-12-16t04.flac
431a60e686e6ed0fe275f317b5720d74 *th1980-12-16t05.flac
7ba96c4028044c4424f3ad3bb385a319 *th1980-12-16t06.flac
24d28eeb26d171e2f60c385b2729f6d7 *th1980-12-16t07.flac
76da39d9c1c85fe31f360f6b75d9ee5b *th1980-12-16t08.flac
14e904efb10903d7a0f1f146a5a9fcab *th1980-12-16t09.flac
76c63cd8ebd16885b433378a852382cd *th1980-12-16t10.flac
2fbebad1a023e9df8a8bab7d8f5a286b *th1980-12-16t11.flac
c083d231ead9353b847f6de0564074b6 *th1980-12-16t12.flac
40b8763e4ce5bf14b02a6fd0087e2636 *th1980-12-16t13.flac
c12d45dc4dc010e002dcf588a0c9b2c0 *th1980-12-16t14.flac
1a6123a9644333d4eea8e37febf8cf65 *th1980-12-16t15.flac

th1980-12-16t01.flac:c6b2157b8b92ba34539fee8f3602de0e
th1980-12-16t02.flac:99f58c8d701fc3925886207ceb0ee2f9
th1980-12-16t03.flac:2a3ec2970bac22b9e5ad0f782c8b41e6
th1980-12-16t04.flac:692b06e0af092eac698d1e1f50d2434b
th1980-12-16t05.flac:e99e2d5e9257855f736dc90ec6793f17
th1980-12-16t06.flac:57a30d0b304ec1fe6171ffc813018b48
th1980-12-16t07.flac:f1fdd2fcb56d2f33eeebf473cd11c9c6
th1980-12-16t08.flac:c2f61dcc64572a39be6d6b7bb7b5f8e8
th1980-12-16t09.flac:26a6aba95b02958a6bbea9057b33dc4e
th1980-12-16t10.flac:b123c2c1cb0a399d676c2a6e027c864a
th1980-12-16t11.flac:bb3e3e86bc915d01892953e54d91281b
th1980-12-16t12.flac:b5f67d382f19fa0b2f605458a158c6dc
th1980-12-16t13.flac:1514271eddb43255def3ee71695e5efc
th1980-12-16t14.flac:e087823cb843096ce2ccaac44f400be0
th1980-12-16t15.flac:1866357f1c1567c7dae3dedabaa3d50d

length expanded size cdr WAVE problems fmt ratio filename
5:56.58 62934860 B --- -- ---xx flac 0.2990 th1980-12-16t01.flac
6:05.66 64541276 B --- -- ---xx flac 0.3001 th1980-12-16t02.flac
4:19.27 45751148 B --- -- ---xx flac 0.2971 th1980-12-16t03.flac
5:09.40 54601724 B --- -- ---xx flac 0.2977 th1980-12-16t04.flac
1:05.48 11578940 B --- -- ---xx flac 0.2792 th1980-12-16t05.flac
4:26.25 46981244 B --- -- ---xx flac 0.2985 th1980-12-16t06.flac
5:03.37 53536268 B --- -- ---xx flac 0.2981 th1980-12-16t07.flac
6:05.07 64402508 B --- -- ---xx flac 0.3023 th1980-12-16t08.flac
4:53.50 51802844 B --- -- ---xx flac 0.2984 th1980-12-16t09.flac
4:35.16 48547676 B --- -- ---xx flac 0.3014 th1980-12-16t10.flac
8:49.57 93449708 B --- -- ---xx flac 0.3051 th1980-12-16t11.flac
7:24.32 78396908 B --- -- ---xx flac 0.3065 th1980-12-16t12.flac
5:22.61 56944316 B --- -- ---xx flac 0.3105 th1980-12-16t13.flac
6:27.39 68358572 B --- -- ---xx flac 0.3082 th1980-12-16t14.flac
7:50.04 82917452 B --- -- ---xx flac 0.3106 th1980-12-16t15.flac
83:35.42 884745444 B 0.3027 (15 files)

No errors occured.


https://tinyurl.com/yc4ocgma

:woot2:
 
1 - 3 of 3 Posts
Top