Guitars101 - Guitar Forums banner
1 - 15 of 15 Posts

·
Administrator
Joined
·
63,137 Posts
Discussion Starter · #1 · (Edited)
John Fogerty - 2014-05-04 - New Orleans, LA
(ts pro-shot)

John Fogerty
New Orleans, Louisiana
New Orleans Jazz & Heritage Festival 2014 (Samsung Galaxy Stage Headliner)
May 4, 2014

01. Born On The Bayou
02. Green River
03. Who'll Stop The Rain
04. Lodi
05. Lookin' Out My Back Door
06. Hot Rod Heart
07. Ramble Tamble
08. Jambalaya On The Bayou (with guests)
09. Midnight Special
10. Mystic Highway
11. Long As I Can See The Light
12. Keep On Chooglin'
13. Have You Ever Seen The Rain?
14. New Orleans
15. Down On The Corner
16. Centerfield
17. Cotton Fields (impromptu)
18. Up Around The Bend
19. The Old Man Down The Road
20. Proud Mary (with guests)
21. Bad Moon Rising
22. Fortunate Son

- AXS TV took a commercial break after Have You Ever Seen The Rain?, but no footage is missing.
- The previous day, John came out during the Bruce Springsteen encore to perform Green River and Proud Mary with him and his band.
- Lodi, Hot Rod Heart, and a few other songs were performed in the "newer" versions found on Fogerty's latest "Wrote A Song For Everyone" album.
- John brought up a few local New Orleans friends on Jambalaya On The Bayou to perform with him.
- John usually performs the standard covers during his set (Midnight Special, etc), but he added one exclusively for this show - "New Orleans" by Gary Bonds, which got the entire crowd dancing immediately!
- On Centerfield, Kenny Aronoff broke his snare drum, causing a delay after the song. John decided to start a solo version of Cotton Fields for the crowd and the rest of the band joined in after the first verse when the snare drum was fixed.
- For Proud Mary, John brought out quite a few local New Orleans musicians to join his band as well as Allen Toussaint, who is featured on the album version of the song on "Wrote A Song For Everyone".

Tech Specs
General
ID : 1 (0x1)
Format : MPEG-TS
File size : 6.66 GiB
Duration : 1h 43mn
Overall bit rate mode : Variable
Overall bit rate : 9 178 Kbps

Video
ID : 524 (0x20C)
Menu ID : 1 (0x1)
Format : MPEG Video
Format version : Version 2
Format profile : [email protected]
Format settings, BVOP : Yes
Format settings, Matrix : Custom
Codec ID : 2
Duration : 1h 43mn
Bit rate mode : Variable
Bit rate : 8 336 Kbps
Maximum bit rate : 20.0 Mbps
Width : 1 920 pixels
Height : 1 080 pixels
Display aspect ratio : 16:9
Frame rate : 29.970 fps
Color space : YUV
Chroma subsampling : 4:2:0
Bit depth : 8 bits
Scan type : Interlaced
Scan order : Top Field First
Compression mode : Lossy
Bits/(Pixel*Frame) : 0.134
Stream size : 6.05 GiB (91%)

Audio
ID : 523 (0x20B)
Menu ID : 1 (0x1)
Format : AC-3
Format/Info : Audio Coding 3
Mode extension : CM (complete main)
Format settings, Endianness : Big
Codec ID : 129
Duration : 1h 43mn
Bit rate mode : Constant
Bit rate : 384 Kbps
Channel(s) : 6 channels
Channel positions : Front: L C R, Side: L R, LFE
Sampling rate : 48.0 KHz
Bit depth : 16 bits
Compression mode : Lossy
Stream size : 285 MiB (4%)
Language : English

Text #1
ID : 524 (0x20C)-CC1
Menu ID : 1 (0x1)
Format : EIA-608
Muxing mode : A/53 / DTVCC Transport
Muxing mode, more info : Muxed in Video #1
Duration : 1h 43mn
Bit rate mode : Constant
Stream size : 0.00 Byte (0%)

Text #2
ID : 524 (0x20C)-1
Menu ID : 1 (0x1)
Format : EIA-708
Muxing mode : A/53 / DTVCC Transport
Muxing mode, more info : Muxed in Video #1
Duration : 1h 43mn
Bit rate mode : Constant
Stream size : 0.00 Byte (0%)

https://rapidgator.net/file/2512001...0/ts.JoFog.2014-05-04.NewOrl.by.TUBE.z01.html
https://rapidgator.net/file/51251af...2/ts.JoFog.2014-05-04.NewOrl.by.TUBE.z02.html
https://rapidgator.net/file/a76313b...7/ts.JoFog.2014-05-04.NewOrl.by.TUBE.z03.html
https://rapidgator.net/file/c398d26...2/ts.JoFog.2014-05-04.NewOrl.by.TUBE.z04.html
https://rapidgator.net/file/1131084...f/ts.JoFog.2014-05-04.NewOrl.by.TUBE.z05.html
https://rapidgator.net/file/dcd04a5...5/ts.JoFog.2014-05-04.NewOrl.by.TUBE.z06.html
https://rapidgator.net/file/1d04fc6...7/ts.JoFog.2014-05-04.NewOrl.by.TUBE.z07.html
https://rapidgator.net/file/b3e903a...4/ts.JoFog.2014-05-04.NewOrl.by.TUBE.z08.html
https://rapidgator.net/file/841d9c9...e/ts.JoFog.2014-05-04.NewOrl.by.TUBE.z09.html
https://rapidgator.net/file/e8c1c9f...6/ts.JoFog.2014-05-04.NewOrl.by.TUBE.z10.html
https://rapidgator.net/file/169845b...4/ts.JoFog.2014-05-04.NewOrl.by.TUBE.z11.html
https://rapidgator.net/file/80dce18...6/ts.JoFog.2014-05-04.NewOrl.by.TUBE.z12.html
https://rapidgator.net/file/0364254...2/ts.JoFog.2014-05-04.NewOrl.by.TUBE.z13.html
https://rapidgator.net/file/f5902a5...4/ts.JoFog.2014-05-04.NewOrl.by.TUBE.zip.html

mirror
https://turbobit.net/dns8bldf8qsc/ts.JoFog.2014-05-04.NewOrl.by.TUBE.z01.html
https://turbobit.net/xz1ioh5n1507/ts.JoFog.2014-05-04.NewOrl.by.TUBE.z02.html
https://turbobit.net/8f8pj20tywqi/ts.JoFog.2014-05-04.NewOrl.by.TUBE.z03.html
https://turbobit.net/bw20q9gvayti/ts.JoFog.2014-05-04.NewOrl.by.TUBE.z04.html
https://turbobit.net/jrxw1lp6amr6/ts.JoFog.2014-05-04.NewOrl.by.TUBE.z05.html
https://turbobit.net/p6ytlp9mdbge/ts.JoFog.2014-05-04.NewOrl.by.TUBE.z06.html
https://turbobit.net/asa3e2i58bh9/ts.JoFog.2014-05-04.NewOrl.by.TUBE.z07.html
https://turbobit.net/n38uj9rzlscd/ts.JoFog.2014-05-04.NewOrl.by.TUBE.z08.html
https://turbobit.net/7i7gwh5dex9m/ts.JoFog.2014-05-04.NewOrl.by.TUBE.z09.html
https://turbobit.net/s8ygw9krd0f6/ts.JoFog.2014-05-04.NewOrl.by.TUBE.z10.html
https://turbobit.net/fptwng1pueq5/ts.JoFog.2014-05-04.NewOrl.by.TUBE.z11.html
https://turbobit.net/ffc5lxekqbos/ts.JoFog.2014-05-04.NewOrl.by.TUBE.z12.html
https://turbobit.net/dxcndi58x6ec/ts.JoFog.2014-05-04.NewOrl.by.TUBE.z13.html
https://turbobit.net/pk7zr5pimbq0/ts.JoFog.2014-05-04.NewOrl.by.TUBE.zip.html

mirror
http://www.filefactory.com/file/6od64120lv6h/n/ts.JoFog.2014-05-04.NewOrl.by.TUBE.z01
http://www.filefactory.com/file/4luv6wyy00kt/n/ts.JoFog.2014-05-04.NewOrl.by.TUBE.z02
http://www.filefactory.com/file/5qajto7vgvmb/n/ts.JoFog.2014-05-04.NewOrl.by.TUBE.z03
http://www.filefactory.com/file/4ldqdyej2d61/n/ts.JoFog.2014-05-04.NewOrl.by.TUBE.z04
http://www.filefactory.com/file/4dnkljku2n1p/n/ts.JoFog.2014-05-04.NewOrl.by.TUBE.z05
http://www.filefactory.com/file/7l4bosb5ww5l/n/ts.JoFog.2014-05-04.NewOrl.by.TUBE.z06
http://www.filefactory.com/file/3fopygtmufn5/n/ts.JoFog.2014-05-04.NewOrl.by.TUBE.z07
http://www.filefactory.com/file/248w0w51z2ir/n/ts.JoFog.2014-05-04.NewOrl.by.TUBE.z08
http://www.filefactory.com/file/43bbp0wlkhdt/n/ts.JoFog.2014-05-04.NewOrl.by.TUBE.z09
http://www.filefactory.com/file/2yz4iynj1hu9/n/ts.JoFog.2014-05-04.NewOrl.by.TUBE.z10
http://www.filefactory.com/file/6dg91n0g7ccl/n/ts.JoFog.2014-05-04.NewOrl.by.TUBE.z11
http://www.filefactory.com/file/79p4ytu7muhh/n/ts.JoFog.2014-05-04.NewOrl.by.TUBE.z12
http://www.filefactory.com/file/5g3rsti3j3nh/n/ts.JoFog.2014-05-04.NewOrl.by.TUBE.z13
http://www.filefactory.com/file/5lrk5w8kezhr/n/ts.JoFog.2014-05-04.NewOrl.by.TUBE.zip
 

Attachments

1 - 15 of 15 Posts
Top